<?xml version="1.0" standalone="no"?>
<!DOCTYPE svg PUBLIC "-//W3C//DTD SVG 1.1//EN" "http://www.w3.org/Graphics/SVG/1.1/DTD/svg11.dtd" >
<svg xmlns="http://www.w3.org/2000/svg" xmlns:xlink="http://www.w3.org/1999/xlink" version="1.1">
<metadata>
Created by FontForge 20170731 at Tue Nov 17 20:33:54 2020
 By Aleksey,,,
Copyright (c) 2007 by Jens Kajus, Playtypes, e-Types AS. All rights reserved.
</metadata>
<defs>
<font id="Agita" horiz-adv-x="1175" >
  <font-face 
    font-family="Agita"
    font-weight="400"
    font-stretch="normal"
    units-per-em="2048"
    panose-1="2 0 5 6 2 0 0 2 0 4"
    ascent="1638"
    descent="-410"
    x-height="973"
    cap-height="1362"
    bbox="-217 -430 2036 1720"
    underline-thickness="40"
    underline-position="-312"
    unicode-range="U+0020-FB02"
  />
<missing-glyph horiz-adv-x="2048" 
 />
    <glyph glyph-name=".notdef" horiz-adv-x="2048" 
 />
    <glyph glyph-name=".null" horiz-adv-x="0" 
 />
    <glyph glyph-name="nonmarkingreturn" horiz-adv-x="682" 
 />
    <glyph glyph-name="space" unicode=" " horiz-adv-x="512" 
 />
    <glyph glyph-name="exclam" unicode="!" horiz-adv-x="497" 
d="M334 1362v-506l-47 -481h-76l-47 481v506h170zM334 0h-170v240h170v-240z" />
    <glyph glyph-name="quotedbl" unicode="&#x22;" horiz-adv-x="700" 
d="M578 983h-158v379h158v-379zM281 983h-158v379h158v-379z" />
    <glyph glyph-name="numbersign" unicode="#" 
d="M1169 999l-22 -122h-268l-72 -400h268l-18 -121h-269l-65 -356h-121l66 356h-252l-66 -356h-121l66 356h-289l21 121h286l72 400h-287l21 122h287l63 363h123l-66 -363h252l64 363h123l-66 -363h270zM758 877h-252l-72 -400h252z" />
    <glyph glyph-name="dollar" unicode="$" 
d="M1051 459v-223q0 -93 -91 -169.5t-223 -76.5h-98v-185h-102v185h-191l-213 160v184h164v-39q0 -82 60 -125t135 -43h45v526l-195 60q-86 26 -143.5 90.5t-57.5 150.5v152q0 107 82 186.5t213 79.5h101v174h102v-174h188l213 -160v-194h-163v39q0 75 -50.5 128.5
t-124.5 53.5h-63v-453l197 -59q215 -67 215 -268zM745 590l-106 33v-496h41q82 0 137 38t55 118v153q0 113 -127 154zM313 1090v-107q0 -51 35.5 -84.5t87.5 -48.5l101 -31v420h-52q-77 0 -124.5 -37.5t-47.5 -111.5z" />
    <glyph glyph-name="percent" unicode="%" horiz-adv-x="1562" 
d="M672 850q0 -52 -51.5 -109t-116.5 -57h-193q-65 0 -116.5 57t-51.5 109v346q0 52 51.5 109t116.5 57h193q65 0 116.5 -57t51.5 -109v-346zM1419 166q0 -52 -51.5 -109t-116.5 -57h-192q-65 0 -116.5 57t-51.5 109v346q0 52 51.5 109t116.5 57h192q65 0 116.5 -57
t51.5 -109v-346zM537 883v280q0 37 -20.5 67t-57.5 30h-103q-37 0 -57 -30t-20 -67v-280q0 -38 20 -67.5t57 -29.5h103q37 0 57.5 29.5t20.5 67.5zM1284 199v280q0 36 -20.5 66t-57.5 30h-102q-37 0 -57.5 -30t-20.5 -66v-280q0 -38 20.5 -67.5t57.5 -29.5h102
q37 0 57.5 29.5t20.5 67.5zM1245 1245l-731 -1077q-55 -79 -55 -121v-67h-144v122l734 1094q53 80 53 119v67h143v-137z" />
    <glyph glyph-name="ampersand" unicode="&#x26;" horiz-adv-x="1402" 
d="M1321 0h-111l-221 217l-217 -227h-311q-129 0 -223.5 80t-94.5 202v269q0 82 68 151.5t172 110.5q-93 93 -121.5 136t-28.5 105v95q0 96 92 164.5t214 68.5h333l205 -164v-225h-174v111q0 71 -50 106t-130 35h-133q-30 0 -54.5 -3t-48 -11t-39 -22t-25 -36.5t-9.5 -52.5
v-57q0 -29 12.5 -53t48.5 -60l510 -496l227 246h109v-119l-221 -237l221 -217v-117zM872 328l-387 374q-69 -12 -118.5 -66t-49.5 -120v-207q0 -76 54.5 -126t138.5 -50h100q75 0 135 64z" />
    <glyph glyph-name="quotesingle" unicode="'" horiz-adv-x="403" 
d="M281 983h-158v379h158v-379z" />
    <glyph glyph-name="parenleft" unicode="(" horiz-adv-x="604" 
d="M645 -420h-248l-233 260v1549l233 260h248v-144h-125q-72 0 -129 -62t-57 -138v-1381q0 -76 57 -138t129 -62h125v-144z" />
    <glyph glyph-name="parenright" unicode=")" horiz-adv-x="604" 
d="M440 -160l-233 -260h-248v144h125q72 0 129 62t57 138v1381q0 76 -57 138t-129 62h-125v144h248l233 -260v-1549z" />
    <glyph glyph-name="asterisk" unicode="*" horiz-adv-x="921" 
d="M797 1137l-260 -68l170 -213l-103 -74l-147 230l-150 -230l-102 74l172 213l-262 68l39 125l254 -101l-17 273h129l-16 -273l256 101z" />
    <glyph glyph-name="plus" unicode="+" 
d="M948 518h-291v-307h-141v307h-291v152h291v303h141v-303h291v-152z" />
    <glyph glyph-name="comma" unicode="," horiz-adv-x="419" 
d="M317 201l-67 -398h-127v398h194z" />
    <glyph glyph-name="hyphen" unicode="-" horiz-adv-x="845" 
d="M723 518h-600v152h600v-152z" />
    <glyph glyph-name="period" unicode="." horiz-adv-x="442" 
d="M319 0h-196v201h196v-201z" />
    <glyph glyph-name="slash" unicode="/" horiz-adv-x="731" 
d="M731 1237l-495 -969q-45 -85 -56 -112q-24 -57 -24 -99v-57h-156v111l498 983q43 85 55 112q22 52 22 99v57h156v-125z" />
    <glyph glyph-name="zero" unicode="0" 
d="M1053 999v-649q0 -157 -93.5 -258.5t-248.5 -101.5h-246q-155 0 -248.5 101.5t-93.5 258.5v649q0 146 98.5 254.5t259.5 108.5h213q108 0 191.5 -53t125.5 -134.5t42 -175.5zM883 399v553q0 122 -54.5 197.5t-144.5 75.5h-192q-90 0 -145.5 -75.5t-55.5 -197.5v-553
q0 -122 55 -197t146 -75h192q90 0 144.5 75t54.5 197z" />
    <glyph glyph-name="one" unicode="1" 
d="M158 0v143h383v1012l-383 -82v150l430 118h121v-1198h378v-143h-929z" />
    <glyph glyph-name="two" unicode="2" 
d="M156 0v150q0 47 25.5 90.5t88.5 101.5l482 442q50 47 69 81t19 87v111q0 75 -48.5 118.5t-134.5 43.5h-159q-76 0 -125 -38.5t-49 -111.5v-112h-174v145q0 99 88.5 176.5t207.5 77.5h263q148 0 227.5 -81t79.5 -218v-248l-672 -633v-39h551v123h168v-266h-907z" />
    <glyph glyph-name="three" unicode="3" 
d="M1001 1341v-225l-368 -315h65q346 0 346 -285v-233q0 -113 -91 -203t-191 -90h-354q-108 0 -191.5 70.5t-83.5 164.5v88h168v-53q0 -64 45.5 -98.5t112.5 -34.5h213q104 0 155.5 58.5t51.5 160.5v170q0 78 -51.5 117t-143.5 39h-256v151l406 351v32h-490v-131h-168v266
h825z" />
    <glyph glyph-name="four" unicode="4" 
d="M971 0h-168v303h-707v225l576 813h198l-600 -849v-41h533v421l74 101h94v-522h129v-148h-129v-303z" />
    <glyph glyph-name="five" unicode="5" 
d="M1040 610v-299q0 -61 -19.5 -117t-57.5 -102.5t-102 -74t-144 -27.5h-246q-123 0 -215 72t-92 184v88h168v-53q0 -68 54.5 -111t129.5 -43h162q91 0 143.5 61t52.5 154v211q0 217 -194 217h-158q-64 0 -117 -41.5t-71 -97.5h-156v710h801v-135h-633v-405l135 102h240
q147 0 233 -81.5t86 -211.5z" />
    <glyph glyph-name="six" unicode="6" 
d="M1042 569v-237q0 -61 -19.5 -120t-57.5 -109.5t-102 -81.5t-144 -31h-238q-136 0 -231.5 95t-95.5 232v670q0 166 87.5 270.5t256.5 104.5h233q118 0 204.5 -77t86.5 -173v-43h-166v23q0 58 -51 95.5t-131 37.5h-150q-200 0 -200 -226v-237l133 100h268q136 0 226.5 -86
t90.5 -207zM872 338v176q0 215 -190 215h-176q-85 0 -133.5 -59t-48.5 -160v-186q0 -94 60 -145.5t142 -51.5h154q90 0 141 60.5t51 150.5z" />
    <glyph glyph-name="seven" unicode="7" 
d="M141 1075v266h901v-262l-512 -932v-147h-186v170l518 926v100h-553v-121h-168z" />
    <glyph glyph-name="eight" unicode="8" 
d="M1053 492v-218q0 -107 -98 -195.5t-228 -88.5h-278q-130 0 -228 88.5t-98 195.5v218q0 67 53 130.5t141 94.5q-60 17 -99 55.5t-52.5 77.5t-13.5 82v164q0 108 96 187t229 79h221q133 0 228.5 -79t95.5 -187v-164q0 -68 -39 -128t-127 -87q90 -31 143.5 -94.5
t53.5 -130.5zM883 291v162q0 86 -62.5 132t-152.5 46h-160q-90 0 -153.5 -46t-63.5 -132v-162q0 -73 66 -118.5t137 -45.5h188q70 0 135.5 45.5t65.5 118.5zM856 936v125q0 79 -49 121.5t-139 42.5h-160q-90 0 -139.5 -42.5t-49.5 -121.5v-125q0 -56 33.5 -96.5t78.5 -58
t91 -17.5h131q46 0 91 17.5t78.5 58t33.5 96.5z" />
    <glyph glyph-name="nine" unicode="9" 
d="M1022 1034v-649q0 -81 -20 -150.5t-60.5 -125t-108 -87.5t-155.5 -32h-234q-120 0 -205 67.5t-85 161.5v43h165v-22q0 -56 50 -84.5t133 -28.5h149q56 0 96.5 20.5t62.5 56.5t32 77.5t10 91.5v217l-135 -101h-285q-135 0 -217 85t-82 208v238q0 61 20 120.5t58.5 109.5
t103 81t144.5 31h233q136 0 233 -95t97 -233zM852 842v186q0 94 -61.5 145.5t-143.5 51.5h-149q-95 0 -145 -58.5t-50 -152.5v-176q0 -96 48 -155.5t145 -59.5h172q84 0 134 63.5t50 155.5z" />
    <glyph glyph-name="colon" unicode=":" horiz-adv-x="442" 
d="M319 772h-196v201h196v-201zM319 0h-196v201h196v-201z" />
    <glyph glyph-name="semicolon" unicode=";" horiz-adv-x="421" 
d="M319 772h-196v201h196v-201zM317 201l-67 -398h-127v398h194z" />
    <glyph glyph-name="less" unicode="&#x3c;" 
d="M946 182l-717 318v172l717 317v-162l-590 -241l590 -242v-162z" />
    <glyph glyph-name="equal" unicode="=" 
d="M948 676h-723v133h723v-133zM948 377h-723v133h723v-133z" />
    <glyph glyph-name="greater" unicode="&#x3e;" 
d="M946 489l-717 -317v162l590 241l-590 242v162l717 -317v-173z" />
    <glyph glyph-name="question" unicode="?" horiz-adv-x="1191" 
d="M1049 805l-396 -238v-192h-170v260l316 188q39 24 56 56t17 84v100q0 166 -159 166h-217q-97 0 -138 -33.5t-41 -116.5v-55h-174v94q0 114 78.5 184t210.5 70h299q161 0 239.5 -78t78.5 -207v-282zM653 0h-170v240h170v-240z" />
    <glyph glyph-name="at" unicode="@" horiz-adv-x="1755" 
d="M1612 973v-516q0 -81 -75.5 -171.5t-147.5 -90.5h-172l-95 122l-135 -122h-233q-76 0 -140.5 67t-64.5 148v307q0 99 62.5 170t156.5 71h231l80 -79l19 71h108v-641h148q45 0 71.5 43t26.5 101v473q0 148 -66.5 232.5t-205.5 84.5h-584q-147 0 -220 -85t-73 -232v-731
q0 -137 77 -209t216 -72h713v-119h-738q-65 0 -125 12.5t-115.5 41t-97 70t-66 103t-24.5 136.5v815q0 112 59.5 203t152.5 138.5t196 47.5h645q179 0 297.5 -108t118.5 -281zM1059 514v195q0 58 -29.5 99.5t-77.5 41.5h-143q-50 0 -78.5 -38t-28.5 -95v-291q0 -55 35 -87
t70 -32h100q57 0 104.5 68.5t47.5 138.5z" />
    <glyph glyph-name="A" unicode="A" horiz-adv-x="1253" 
d="M1192 0h-174v57q0 40 -11 88t-21.5 77t-33.5 87l-41 105h-567l-43 -105q-65 -160 -65 -252v-57h-175v154l486 1189v19h162v-19l483 -1193v-150zM852 561l-215 569h-19l-217 -569h451z" />
    <glyph glyph-name="B" unicode="B" horiz-adv-x="1224" 
d="M1122 479v-174q0 -116 -98 -210.5t-219 -94.5h-641v1362h551q152 0 245 -79.5t93 -197.5v-137q0 -59 -35.5 -121.5t-91.5 -93.5v-10q83 -30 139.5 -89.5t56.5 -154.5zM948 328v129q0 71 -57 120.5t-160 49.5h-399v-484h407q80 0 144.5 51.5t64.5 133.5zM885 963v94
q0 76 -51 119t-146 43h-356v-449h354q90 0 144.5 57t54.5 136z" />
    <glyph glyph-name="C" unicode="C" horiz-adv-x="1230" 
d="M1141 164l-236 -174h-352q-130 0 -230 61.5t-150 158.5t-50 210v522q0 113 50 210t150 158.5t230 61.5h352l236 -174v-180h-174v39q0 74 -53.5 123t-129.5 49h-204q-128 0 -205.5 -90t-77.5 -215v-486q0 -125 77.5 -215t205.5 -90h204q76 0 129.5 49t53.5 123v39h174
v-180z" />
    <glyph glyph-name="D" unicode="D" horiz-adv-x="1320" 
d="M1198 897v-432q0 -200 -120 -332.5t-318 -132.5h-596v1362h596q198 0 318 -132.5t120 -332.5zM1028 473v416q0 151 -72 239.5t-223 88.5h-399v-1072h399q151 0 223 88.5t72 239.5z" />
    <glyph glyph-name="E" unicode="E" horiz-adv-x="1128" 
d="M1063 0h-899v1362h883v-145h-713v-447h581v-147h-581v-478h729v-145z" />
    <glyph glyph-name="F" unicode="F" horiz-adv-x="1087" 
d="M1026 1217h-692v-447h581v-147h-581v-623h-170v1362h862v-145z" />
    <glyph glyph-name="G" unicode="G" horiz-adv-x="1302" 
d="M1047 0l-25 113l-156 -123h-325q-98 0 -178.5 35.5t-132 96t-79.5 137t-28 161.5v522q0 113 51.5 210t153 158.5t231.5 61.5h385l236 -174v-180h-174v39q0 74 -53.5 123t-129.5 49h-243q-128 0 -205.5 -90t-77.5 -215v-486q0 -128 68 -216.5t194 -88.5h211q80 0 158 54.5
t78 125.5v232h-261v147h435v-692h-133z" />
    <glyph glyph-name="H" unicode="H" horiz-adv-x="1343" 
d="M1180 0h-168v608h-680v-608h-168v1362h168v-606h680v606h168v-1362z" />
    <glyph glyph-name="I" unicode="I" horiz-adv-x="530" 
d="M350 0h-170v1362h170v-1362z" />
    <glyph glyph-name="J" unicode="J" horiz-adv-x="856" 
d="M692 227l-252 -227h-379v143h205q93 0 174.5 79.5t81.5 172.5v967h170v-1135z" />
    <glyph glyph-name="K" unicode="K" horiz-adv-x="1214" 
d="M1133 0h-181v53q0 51 -9 80t-38 70l-340 477l-231 -248v-432h-170v1362h170v-684h18l494 530q33 34 57.5 75.5t24.5 66.5v12h178v-102l-422 -455l449 -625v-180z" />
    <glyph glyph-name="L" unicode="L" horiz-adv-x="1036" 
d="M1006 0h-842v1362h170v-1217h672v-145z" />
    <glyph glyph-name="M" unicode="M" horiz-adv-x="1632" 
d="M1468 0h-157v901h-25l-325 -561q-68 -115 -68 -199v-16h-154v16q0 85 -67 199l-326 561h-24v-901h-158v1362h174v-57q0 -52 17 -100t53 -111l395 -686h26l396 686q36 63 52.5 110.5t16.5 100.5v57h174v-1362z" />
    <glyph glyph-name="N" unicode="N" horiz-adv-x="1343" 
d="M1180 0h-174v37q0 65 -19 108t-69 105l-574 717h-27v-967h-153v1362h174v-37q0 -65 19 -108t69 -105l573 -717h27v967h154v-1362z" />
    <glyph glyph-name="O" unicode="O" horiz-adv-x="1341" 
d="M1219 942v-522q0 -112 -53.5 -209.5t-155.5 -159t-232 -61.5h-211q-130 0 -233.5 61.5t-157 159t-53.5 209.5v522q0 112 53.5 209.5t157 159t233.5 61.5h211q130 0 232 -61.5t155.5 -159t53.5 -209.5zM1044 438v486q0 125 -77 215t-205 90h-182q-128 0 -205.5 -90
t-77.5 -215v-486q0 -125 77.5 -215t205.5 -90h182q128 0 205 90t77 215z" />
    <glyph glyph-name="P" unicode="P" horiz-adv-x="1163" 
d="M1081 1026v-182q0 -94 -54 -173.5t-135.5 -122t-166.5 -42.5h-389v-506h-172v1362h536q102 0 188 -39t139.5 -117t53.5 -180zM905 860v154q0 99 -63.5 152t-179.5 53h-326v-574h352q87 0 152 61.5t65 153.5z" />
    <glyph glyph-name="Q" unicode="Q" horiz-adv-x="1341" 
d="M1219 215l-265 -217l240 -272h-219l-238 264h-172q-131 0 -233.5 61t-155.5 158.5t-53 210.5v522q0 113 53 210t156 158.5t233 61.5h213q130 0 232 -61.5t155.5 -159t53.5 -209.5v-727zM1044 285v639q0 125 -77 215t-205 90h-182q-128 0 -205.5 -90t-77.5 -215v-486
q0 -126 77.5 -215.5t205.5 -89.5h284z" />
    <glyph glyph-name="R" unicode="R" horiz-adv-x="1214" 
d="M1133 0h-181v53q0 51 -9 80t-38 70l-272 381h-299v-584h-170v1362h543q169 0 271.5 -86t102.5 -223v-164q0 -96 -78.5 -177t-179.5 -102l310 -430v-180zM905 915v123q0 94 -59.5 136.5t-183.5 42.5h-328v-490h366q82 0 143.5 54t61.5 134z" />
    <glyph glyph-name="S" unicode="S" horiz-adv-x="1142" 
d="M1040 471v-215q0 -61 -39.5 -121.5t-113 -102.5t-160.5 -42h-412l-213 160v184h164v-39q0 -82 60 -125t135 -43h209q82 0 137 46.5t55 129.5v146q0 59 -32 99.5t-95 53.5l-418 88q-93 19 -149.5 83t-56.5 161v172q0 107 82 186.5t213 79.5h411l213 -160v-194h-164v39
q0 75 -50 128.5t-124 53.5h-237q-77 0 -124.5 -37.5t-47.5 -111.5v-127q0 -52 35.5 -87.5t87.5 -46.5l419 -90q106 -23 160.5 -92t54.5 -176z" />
    <glyph glyph-name="T" unicode="T" horiz-adv-x="1050" 
d="M1010 1217h-400v-1217h-170v1217h-399v145h969v-145z" />
    <glyph glyph-name="U" unicode="U" horiz-adv-x="1343" 
d="M1180 1362v-983q0 -153 -113.5 -271t-278.5 -118h-233q-165 0 -278 118t-113 271v983h168v-979q0 -96 72 -173t169 -77h197q97 0 169.5 77t72.5 173v979h168z" />
    <glyph glyph-name="V" unicode="V" horiz-adv-x="1253" 
d="M1192 1212l-483 -1194v-18h-162v18l-486 1190v154h175v-57q0 -20 1.5 -38t6.5 -39.5t7 -32.5t11 -37.5t11 -32t14.5 -38t13.5 -34.5l313 -807h27l311 807q3 9 13.5 35.5t14.5 36.5t12 33t11 36.5t7.5 33.5t6 38.5t1.5 38.5v57h174v-150z" />
    <glyph glyph-name="W" unicode="W" horiz-adv-x="1818" 
d="M1737 1212l-375 -1194v-18h-162v18l-289 938l-290 -938v-18h-162v18l-377 1194v150h172v-57q0 -95 65 -312l222 -731h20l197 645q65 206 65 314v141h172v-141q0 -105 66 -314l199 -645h20l219 731q66 220 66 312v57h172v-150z" />
    <glyph glyph-name="X" unicode="X" horiz-adv-x="1191" 
d="M1120 0h-174v49q0 33 -14 68.5t-28 56.5t-40 55l-254 330h-26l-254 -330q-84 -105 -84 -172v-57h-174v152l407 530v27l-387 501v152h174v-51q0 -32 11.5 -61.5t24.5 -48.5t50 -68l232 -297h26l232 297q49 63 66.5 97.5t17.5 80.5v51h174v-148l-385 -505v-27l405 -535
v-147z" />
    <glyph glyph-name="Y" unicode="Y" horiz-adv-x="1150" 
d="M1100 1214l-438 -753v-461h-170v461l-441 749v152h174v-57q0 -51 70 -181l268 -483h27l268 483q5 8 16 27.5t15 27t12 23.5t11 25t7 23t5.5 27t1.5 28v57h174v-148z" />
    <glyph glyph-name="Z" unicode="Z" horiz-adv-x="1185" 
d="M1063 0h-940v272l745 875v70h-733v145h897v-272l-745 -875v-70h776v-145z" />
    <glyph glyph-name="bracketleft" unicode="[" horiz-adv-x="544" 
d="M545 -420h-381v2067h381v-144h-211v-1779h211v-144z" />
    <glyph glyph-name="backslash" unicode="\" horiz-adv-x="751" 
d="M741 0h-155v57q0 40 -25 99q-24 54 -55 112l-496 969v125h156v-57q0 -47 22 -99q12 -29 56 -112l497 -983v-111z" />
    <glyph glyph-name="bracketright" unicode="]" horiz-adv-x="544" 
d="M381 -420h-381v144h211v1779h-211v144h381v-2067z" />
    <glyph glyph-name="asciicircum" unicode="^" horiz-adv-x="765" 
d="M20 817l277 545h172l276 -545h-161l-201 418l-201 -418h-162z" />
    <glyph glyph-name="underscore" unicode="_" horiz-adv-x="1153" 
d="M1030 -162h-907v131h907v-131z" />
    <glyph glyph-name="grave" unicode="`" horiz-adv-x="440" 
d="M301 1085h-141l-203 215h205z" />
    <glyph glyph-name="a" unicode="a" horiz-adv-x="1064" 
d="M983 0h-123l-90 113l-152 -123h-249q-112 0 -194.5 73.5t-82.5 180.5v100q0 95 73.5 163t184.5 68h402v142q0 141 -134 141h-190q-52 0 -87 -18.5t-38 -44.5l-4 -35h-154v127l158 96h348q111 0 184.5 -68t73.5 -178v-530l74 -90v-117zM752 336v117h-365
q-56 0 -92.5 -33.5t-36.5 -87.5v-68q0 -72 46.5 -110.5t123.5 -38.5h96q80 0 154 66t74 155z" />
    <glyph glyph-name="b" unicode="b" horiz-adv-x="1118" 
d="M1008 643v-319q0 -82 -35.5 -157.5t-105 -126t-156.5 -50.5h-199q-59 0 -123.5 38t-91.5 85l-10 -113h-144v1434h164v-580q38 65 100 97t136 32h164q138 0 219.5 -93t81.5 -247zM840 336v282q0 118 -45.5 180t-128.5 62h-136q-99 0 -163 -68t-64 -167v-310
q0 -75 73.5 -137.5t147.5 -62.5h125q86 0 138.5 64t52.5 157z" />
    <glyph glyph-name="c" unicode="c" horiz-adv-x="1030" 
d="M938 135l-186 -145h-297q-144 0 -244 95.5t-100 219.5v363q0 124 100 219.5t244 95.5h297l186 -145v-129h-164v10q0 65 -49.5 102t-124.5 37h-111q-91 0 -148.5 -67t-57.5 -156v-297q0 -89 57.5 -156t148.5 -67h111q75 0 124.5 37t49.5 102v10h164v-129z" />
    <glyph glyph-name="d" unicode="d" horiz-adv-x="1118" 
d="M975 0h-164v98l-149 -108h-269q-120 0 -201 99.5t-81 234.5v297q0 164 97.5 263t235.5 99h234l133 -88v539h164v-1434zM815 334v297q0 98 -51 162.5t-146 64.5h-143q-90 0 -143 -67.5t-53 -182.5v-252q0 -109 51 -176t139 -67h127q80 0 149.5 71.5t69.5 149.5z" />
    <glyph glyph-name="e" unicode="e" horiz-adv-x="1048" 
d="M938 668v-205h-659v-125q0 -90 59 -156.5t151 -66.5h111q75 0 124.5 37t49.5 102v10h164v-129l-186 -145h-297q-144 0 -244 95.5t-100 219.5v332q0 88 39 166t116.5 129t175.5 51h217q109 0 194 -98t85 -217zM778 588v57q0 96 -48.5 154.5t-131.5 58.5h-135
q-88 0 -136 -67.5t-48 -165.5v-37h499z" />
    <glyph glyph-name="f" unicode="f" horiz-adv-x="700" 
d="M680 1300h-141q-133 0 -133 -178v-149h258v-123h-258v-850h-164v850h-232v123h232v170q0 35 7 70.5t26 76.5t48.5 72t80 51.5t114.5 20.5h162v-134z" />
    <glyph glyph-name="g" unicode="g" horiz-adv-x="1081" 
d="M932 735v-114q0 -102 -77.5 -177t-229.5 -75h-230l-73 -62q-21 -16 -21 -43v-49q0 -19 12.5 -31t32.5 -12h393q126 0 200.5 -56.5t74.5 -166.5v-150q0 -99 -83 -164t-216 -65h-471l-162 141v223h166v-116q0 -127 147 -127h299q75 0 116.5 35.5t41.5 101.5v88
q0 61 -35.5 93t-116.5 32h-372q-75 0 -126.5 39t-51.5 104v144l92 75q-56 33 -87.5 90t-31.5 128v114q0 107 76 177.5t229 70.5h197q144 0 223 -63l74 63h139v-156h-146q17 -49 17 -92zM770 633v90q0 135 -176 135h-133q-176 0 -176 -135v-90q0 -139 176 -139h133
q176 0 176 139z" />
    <glyph glyph-name="h" unicode="h" horiz-adv-x="1097" 
d="M954 649v-649h-163v676q0 84 -35 133t-111 49h-96q-89 0 -165.5 -72.5t-76.5 -154.5v-631h-164v1434h164v-566l142 115h235q270 0 270 -334z" />
    <glyph glyph-name="i" unicode="i" horiz-adv-x="475" 
d="M319 1196h-163v166h163v-166zM319 0h-163v973h163v-973z" />
    <glyph glyph-name="j" unicode="j" horiz-adv-x="456" 
d="M313 1196h-166v166h166v-166zM313 -236l-213 -184h-213v144h72q85 0 136.5 47t51.5 135v1067h166v-1209z" />
    <glyph glyph-name="k" unicode="k" horiz-adv-x="1021" 
d="M971 0h-164v31q0 45 -14 83t-52 85l-249 307l-185 -174v-332h-164v1434h164v-910l395 385q30 30 33 64h187v-70l-314 -293l363 -450v-160z" />
    <glyph glyph-name="l" unicode="l" horiz-adv-x="475" 
d="M319 0h-163v1434h163v-1434z" />
    <glyph glyph-name="m" unicode="m" horiz-adv-x="1583" 
d="M1440 688v-688h-164v670q0 42 -5 73t-17.5 58.5t-38.5 42t-64 14.5h-84q-73 0 -136 -73.5t-63 -163.5v-621h-153v670q0 88 -28 138t-101 50h-84q-71 0 -133 -73.5t-62 -163.5v-621h-164v973h133l11 -107h18l119 117h188q93 0 145 -27t83 -90h16l115 117h205
q78 0 131.5 -21t81.5 -62t39.5 -91.5t11.5 -120.5z" />
    <glyph glyph-name="n" unicode="n" horiz-adv-x="1097" 
d="M954 647v-647h-163v676q0 84 -35.5 133t-110.5 49h-96q-89 0 -165.5 -72.5t-76.5 -154.5v-631h-164v973h133l11 -107h18l144 117h235q270 0 270 -336z" />
    <glyph glyph-name="o" unicode="o" horiz-adv-x="1089" 
d="M979 627v-281q0 -67 -22.5 -130t-64 -114t-107 -81.5t-144.5 -30.5h-195q-104 0 -182 53t-115.5 132.5t-37.5 170.5v281q0 91 37.5 170.5t115.5 132.5t182 53h195q79 0 144.5 -30.5t107 -81.5t64 -114t22.5 -130zM813 358v256q0 107 -51.5 175.5t-147.5 68.5h-139
q-96 0 -147.5 -68.5t-51.5 -175.5v-256q0 -106 51.5 -174.5t147.5 -68.5h139q96 0 147.5 68.5t51.5 174.5z" />
    <glyph glyph-name="p" unicode="p" horiz-adv-x="1118" 
d="M1008 643v-317q0 -129 -83.5 -232.5t-213.5 -103.5h-179q-75 0 -136.5 34.5t-88.5 86.5v-531h-164v1393h123l45 -111q36 60 97.5 90.5t134.5 30.5h164q138 0 219.5 -93t81.5 -247zM840 338v280q0 118 -45.5 180t-128.5 62h-136q-99 0 -163 -68t-64 -167v-308
q0 -84 72 -143t149 -59h125q86 0 138.5 65.5t52.5 157.5z" />
    <glyph glyph-name="q" unicode="q" horiz-adv-x="1118" 
d="M811 -430v528l-149 -108h-269q-120 0 -201 99.5t-81 234.5v297q0 164 97.5 263t235.5 99h234l131 -86l22 76h144v-1335zM815 338v293q0 98 -51 162.5t-148 64.5h-141q-90 0 -143 -67.5t-53 -182.5v-250q0 -110 51 -177.5t139 -67.5h127q81 0 150 72.5t69 152.5z" />
    <glyph glyph-name="r" unicode="r" horiz-adv-x="698" 
d="M657 817h-182q-74 0 -121 -71.5t-47 -172.5v-573h-164v973h119l43 -133l172 143h180v-166z" />
    <glyph glyph-name="s" unicode="s" horiz-adv-x="997" 
d="M895 319v-112q0 -79 -69 -148t-169 -69h-395l-160 141v133h156l4 -31q8 -68 50 -96t112 -28h158q63 0 104 29.5t41 80.5v64q0 54 -32.5 82t-112.5 47l-260 59q-211 48 -211 209v86q0 96 68.5 156.5t172.5 60.5h363l159 -141v-133h-155l-4 30q-16 125 -162 125h-158
q-125 0 -125 -108v-58q0 -67 125 -96l303 -72q104 -25 150.5 -75t46.5 -136z" />
    <glyph glyph-name="t" unicode="t" horiz-adv-x="720" 
d="M680 0h-172q-129 0 -202 74.5t-73 197.5v578h-213v123h213v284l164 35v-319h283v-123h-283v-543q0 -97 35 -135.5t115 -38.5h133v-133z" />
    <glyph glyph-name="u" unicode="u" horiz-adv-x="1097" 
d="M954 0h-133l-10 106h-18l-164 -116h-215q-271 0 -271 336v647h164v-660q0 -85 34.5 -137.5t109.5 -52.5h118q89 0 155.5 66.5t66.5 150.5v633h163v-973z" />
    <glyph glyph-name="v" unicode="v" horiz-adv-x="1017" 
d="M936 854l-350 -838v-16h-154v16l-350 838v119h166v-31q0 -82 65 -250l185 -475h24l183 475q21 52 32 82.5t22 79t11 88.5v31h166v-119z" />
    <glyph glyph-name="w" unicode="w" horiz-adv-x="1490" 
d="M1409 856l-305 -840v-16h-164v16l-192 654l-195 -654v-16h-164v16l-307 840v117h166v-31q0 -87 53 -248l160 -487h24l140 487q2 8 11.5 41.5t13 47.5t9.5 40.5t8.5 48t2.5 43.5v58h153v-58q0 -77 43 -221l142 -487h24l158 487q2 7 11 34.5t11 34.5t8.5 29.5t8.5 31.5
t6.5 27.5t5.5 30.5t2.5 28.5t1.5 31.5v31h164v-117z" />
    <glyph glyph-name="x" unicode="x" horiz-adv-x="999" 
d="M907 0h-164v43q0 55 -57 125l-174 217h-12l-185 -217q-57 -65 -57 -119v-49h-166v117l309 362v15l-301 358v121h166v-45q0 -49 58 -123l168 -207h12l168 207q32 39 43.5 65.5t11.5 57.5v45h166v-123l-289 -340v-14l303 -379v-117z" />
    <glyph glyph-name="y" unicode="y" horiz-adv-x="1034" 
d="M952 856l-483 -1145l-168 -141h-260v143h137q68 0 114 34.5t89 133.5l65 150l-348 827v115h166v-29q0 -25 3.5 -49.5t13 -54.5t14 -43t20 -50t17.5 -42l182 -474h25l190 492q57 148 57 221v29h166v-117z" />
    <glyph glyph-name="z" unicode="z" horiz-adv-x="944" 
d="M862 0h-772v188l565 623v37h-573v125h752v-189l-566 -622v-37h594v-125z" />
    <glyph glyph-name="braceleft" unicode="{" horiz-adv-x="759" 
d="M801 -420h-248l-231 260v555q0 77 -38 112.5t-114 35.5h-47v139h47q78 0 115 36.5t37 117.5v553l231 260h248v-144h-125q-72 0 -129.5 -62.5t-57.5 -137.5v-441q0 -73 -20.5 -141.5t-60.5 -110.5q40 -42 60.5 -110.5t20.5 -141.5v-436q0 -75 57.5 -137.5t129.5 -62.5h125
v-144z" />
    <glyph glyph-name="bar" unicode="|" horiz-adv-x="526" 
d="M322 -123h-117v1639h117v-1639z" />
    <glyph glyph-name="braceright" unicode="}" horiz-adv-x="759" 
d="M637 543h-49q-77 0 -113.5 -36.5t-36.5 -117.5v-549l-231 -260h-248v144h125q70 0 127 62.5t57 137.5v436q0 72 21.5 141t62.5 111q-41 42 -62.5 111t-21.5 141v441q0 75 -57 137.5t-127 62.5h-125v144h248l229 -260v-553q0 -81 37 -117.5t115 -36.5h49v-139z" />
    <glyph glyph-name="asciitilde" unicode="~" horiz-adv-x="1257" 
d="M1114 586l-182 -152h-160q-41 0 -80 19.5t-68.5 48t-57.5 56.5t-59 47.5t-61 19.5h-26q-49 0 -82 -33.5t-33 -83.5v-59h-162v159l183 152h159q41 0 79 -19.5t67.5 -48t57.5 -56.5t59.5 -47.5t62.5 -19.5h25q49 0 82.5 33.5t33.5 83.5v59h162v-159z" />
    <glyph glyph-name="nbspace" unicode="&#xa0;" horiz-adv-x="512" 
 />
    <glyph glyph-name="exclamdown" unicode="&#xa1;" horiz-adv-x="505" 
d="M338 117v-506h-170v506l47 481h76zM168 973h170v-240h-170v240z" />
    <glyph glyph-name="cent" unicode="&#xa2;" 
d="M1022 326l-166 -146h-197v-180h-108v180h-82q-79 0 -142.5 37.5t-99.5 92.5t-54.5 109t-18.5 97v324q0 33 11 74.5t36 88t60.5 84t89.5 62.5t118 25h82v188h108v-188h197l166 -144v-129h-164v10q0 140 -170 140h-29v-746h29q170 0 170 139v11h164v-129zM551 305v746h-39
q-85 0 -135.5 -69t-50.5 -175v-258q0 -106 50.5 -175t135.5 -69h39z" />
    <glyph glyph-name="sterling" unicode="&#xa3;" 
d="M106 594v137h132v375q0 107 81.5 186.5t212.5 79.5h302l200 -149v-185h-164v39q0 74 -44 118t-119 44h-115q-79 0 -130.5 -38t-51.5 -111v-359h321v-137h-321v-457h397q74 0 134 43t60 125v39h164v-184l-213 -160h-915v137h201v457h-132z" />
    <glyph glyph-name="currency" unicode="&#xa4;" horiz-adv-x="1204" 
d="M1079 233l-43 -43l-164 166q-119 -98 -270 -98t-270 98l-164 -166l-43 43l164 164q-109 127 -109 285q0 150 96 272l-151 154l43 43l151 -152q128 109 283 109t283 -109l151 152l43 -43l-151 -154q96 -126 96 -272q0 -154 -109 -285zM874 682q0 114 -80 196.5t-192 82.5
q-113 0 -192.5 -82t-79.5 -197q0 -113 79.5 -194.5t192.5 -81.5q112 0 192 81.5t80 194.5z" />
    <glyph glyph-name="yen" unicode="&#xa5;" 
d="M1092 1214l-396 -679h232v-78h-254v-105h254v-78h-254v-274h-170v274h-262v78h262v105h-262v78h239l-397 675v152h174v-57q0 -46 14 -86t50 -105l253 -452h27l254 452q36 64 49 104t13 87v57h174v-148z" />
    <glyph glyph-name="brokenbar" unicode="&#xa6;" horiz-adv-x="526" 
d="M322 788h-117v728h117v-728zM322 -123h-117v748h117v-748z" />
    <glyph glyph-name="section" unicode="&#xa7;" 
d="M1077 338q0 -69 -46 -124t-116 -89q56 -71 56 -125v-170q0 -99 -92 -179.5t-211 -80.5h-265l-204 164v190h153v-37q0 -74 54 -127t129 -53h81q79 0 131 35t52 108v115q0 40 -26.5 76t-86.5 59l-387 150q-88 33 -141.5 91t-53.5 128v156q0 133 160 213q-53 67 -53 125v149
q0 99 92 179.5t209 80.5h256l205 -164v-190h-154v37q0 74 -53.5 127t-128.5 53h-74q-79 0 -129.5 -35t-50.5 -108v-95q0 -42 28 -78t83 -57l389 -149q86 -33 140 -92.5t54 -126.5v-156zM899 346v107q0 41 -29 73t-77 52l-394 157l-30 15q-88 -67 -88 -134v-106
q0 -80 106 -125l383 -154q29 -10 43 -18q86 65 86 133z" />
    <glyph glyph-name="dieresis" unicode="&#xa8;" horiz-adv-x="727" 
d="M604 1085h-164v164h164v-164zM287 1085h-164v164h164v-164z" />
    <glyph glyph-name="copyright" unicode="&#xa9;" horiz-adv-x="1667" 
d="M1503 451q0 -210 -130 -330.5t-329 -120.5h-421q-199 0 -329 120.5t-130 330.5v460q0 210 130 330.5t329 120.5h421q199 0 329 -120.5t130 -330.5v-460zM1364 434v494q0 72 -34 143t-103.5 121.5t-157.5 50.5h-471q-88 0 -157.5 -50.5t-103.5 -121.5t-34 -143v-494
q0 -72 34 -143t103.5 -121.5t157.5 -50.5h471q88 0 157.5 50.5t103.5 121.5t34 143zM1159 440l-145 -121h-301q-86 0 -140.5 67.5t-54.5 135.5v297q0 26 13.5 61.5t37.5 70.5t64.5 59t87.5 24h293l145 -121v-108h-125v31q0 37 -25.5 62.5t-62.5 25.5h-215q-36 0 -63 -38
t-27 -75v-270q0 -36 27 -73.5t63 -37.5h215q37 0 62.5 25.5t25.5 62.5v31h125v-109z" />
    <glyph glyph-name="ordfeminine" unicode="&#xaa;" horiz-adv-x="804" 
d="M682 760h-102l-45 55l-80 -61h-150q-73 0 -127.5 46.5t-54.5 114.5v68q0 62 48.5 103.5t123.5 41.5h213v64q0 68 -57 68h-113q-30 0 -40.5 -12.5t-12.5 -43.5h-129v92l104 66h209q73 0 121.5 -44t48.5 -114v-307l43 -53v-84zM508 969v67h-193q-24 0 -39.5 -16.5
t-15.5 -42.5v-49q0 -34 21.5 -53t56.5 -19h57q40 0 76.5 34t36.5 79z" />
    <glyph glyph-name="guillemotleft" unicode="&#xab;" horiz-adv-x="942" 
d="M860 176h-153l-224 361l224 358h153l-223 -358zM459 176h-154l-223 361l223 358h154l-223 -358z" />
    <glyph glyph-name="logicalnot" unicode="&#xac;" 
d="M940 246h-158v272h-565v152h723v-424z" />
    <glyph glyph-name="uni00AD" unicode="&#xad;" horiz-adv-x="0" 
 />
    <glyph glyph-name="registered" unicode="&#xae;" horiz-adv-x="1667" 
d="M1503 453q0 -141 -61.5 -245t-164.5 -156t-233 -52h-421q-130 0 -233 52t-164.5 156t-61.5 245v458q0 141 61.5 244.5t164.5 155t233 51.5h421q130 0 233 -51.5t164.5 -155t61.5 -244.5v-458zM1364 436v492q0 72 -34 143t-103.5 121.5t-157.5 50.5h-471
q-88 0 -157.5 -50.5t-103.5 -121.5t-34 -143v-492q0 -73 34 -144t103.5 -121t157.5 -50h471q88 0 157.5 50t103.5 121t34 144zM1147 322h-127v57q0 54 -45 110l-82 95h-225v-262h-123v712h401q88 0 144.5 -52t56.5 -120v-131l-123 -117l123 -161v-131zM1020 774v70
q0 38 -27.5 60t-70.5 22h-254v-242h262q32 0 61 29.5t29 60.5z" />
    <glyph glyph-name="macron" unicode="&#xaf;" horiz-adv-x="733" 
d="M610 1085h-487v103h487v-103z" />
    <glyph glyph-name="degree" unicode="&#xb0;" horiz-adv-x="788" 
d="M666 1196q0 -109 -80.5 -185.5t-190.5 -76.5q-111 0 -191.5 76.5t-80.5 185.5q0 111 80 186.5t192 75.5q111 0 191 -75.5t80 -186.5zM559 1196q0 69 -48 117.5t-116 48.5q-69 0 -116.5 -48.5t-47.5 -117.5q0 -68 48 -117t116 -49q67 0 115.5 49t48.5 117z" />
    <glyph glyph-name="plusminus" unicode="&#xb1;" horiz-adv-x="927" 
d="M825 541h-290v-305h-142v305h-291v149h291v305h142v-305h290v-149zM825 0h-723v129h723v-129z" />
    <glyph glyph-name="twosuperior" unicode="&#xb2;" horiz-adv-x="768" 
d="M133 678v102q0 54 60 103l251 207q39 31 39 73v39q0 60 -67 60h-86q-31 0 -51.5 -19.5t-20.5 -50.5v-62h-135v84q0 55 48 101.5t110 46.5h178q76 0 119 -43.5t43 -114.5v-123l-340 -288v-13h254v60h110v-162h-512z" />
    <glyph glyph-name="threesuperior" unicode="&#xb3;" horiz-adv-x="755" 
d="M612 1362v-129l-157 -146q85 0 131.5 -32t46.5 -117v-104q0 -60 -48.5 -108t-101.5 -48h-215q-57 0 -101 38t-44 89v65h135v-39q0 -25 19 -38t47 -13h84q88 0 88 94v56q0 63 -82 63h-107v107l178 166h-223v-72h-127v168h477z" />
    <glyph glyph-name="acute" unicode="&#xb4;" horiz-adv-x="440" 
d="M412 1300l-203 -215h-141l139 215h205z" />
    <glyph glyph-name="mu" unicode="&#xb5;" horiz-adv-x="1081" 
d="M1012 0h-103l-116 121l-179 -131h-221q-52 0 -106 43v-443h-164v1383h164v-680q0 -74 40 -122t111 -48h117q88 0 154.5 68t66.5 151v631h164v-778l72 -76v-119z" />
    <glyph glyph-name="paragraph" unicode="&#xb6;" horiz-adv-x="1071" 
d="M866 -420h-129v1747h-133v-1747h-129v1469l-102 -111h-148v424h641v-1782z" />
    <glyph glyph-name="periodcentered" unicode="&#xb7;" horiz-adv-x="442" 
d="M319 512h-196v201h196v-201z" />
    <glyph glyph-name="cedilla" unicode="&#xb8;" horiz-adv-x="681" 
d="M559 -274q0 -53 -45.5 -94.5t-112.5 -41.5h-141q-59 0 -98 45t-39 91v38h106v-18q0 -32 19.5 -56t54.5 -24h76q35 0 54.5 24t19.5 56v49q0 28 -19.5 45t-54.5 17h-186l30 147h123l-16 -72h78q66 0 108.5 -33t42.5 -83v-90z" />
    <glyph glyph-name="onesuperior" unicode="&#xb9;" horiz-adv-x="712" 
d="M123 684v107h174v446l-174 -41v104l207 62h96v-571h164v-107h-467z" />
    <glyph glyph-name="ordmasculine" unicode="&#xba;" horiz-adv-x="792" 
d="M670 1141v-166q0 -86 -59 -153.5t-158 -67.5h-115q-97 0 -156 67.5t-59 153.5v166q0 86 59 153.5t156 67.5h115q99 0 158 -67.5t59 -153.5zM532 983v150q0 56 -25 91.5t-71 35.5h-80q-46 0 -72 -35.5t-26 -91.5v-150q0 -56 26 -91.5t72 -35.5h80q46 0 71 35.5t25 91.5z
" />
    <glyph glyph-name="guillemotright" unicode="&#xbb;" horiz-adv-x="942" 
d="M860 539l-223 -361h-154l224 361l-224 358h154zM457 539l-221 -361h-154l223 361l-223 358h154z" />
    <glyph glyph-name="onequarter" unicode="&#xbc;" horiz-adv-x="1515" 
d="M1309 0h-131v127h-377v135l282 418h152l-297 -438v-11h240v213l39 54h92v-267h63v-104h-63v-127zM143 684v107h176v446l-176 -41v104l207 62h96v-571h164v-107h-467zM1217 1245l-732 -1077q-55 -79 -55 -121v-67h-143v122l733 1094q53 80 53 119v67h144v-137z" />
    <glyph glyph-name="onehalf" unicode="&#xbd;" horiz-adv-x="1544" 
d="M889 0v102q0 57 59 103l252 201q23 18 31 33.5t8 39.5v39q0 60 -68 60h-86q-31 0 -51 -19.5t-20 -50.5v-62h-135v84q0 55 47.5 101.5t109.5 46.5h178q76 0 119 -43.5t43 -114.5v-123l-340 -282v-13h254v60h111v-162h-512zM143 684v107h176v446l-176 -41v104l207 62h96
v-571h164v-107h-467zM1217 1245l-732 -1077q-55 -79 -55 -121v-67h-143v122l733 1094q53 80 53 119v67h144v-137z" />
    <glyph glyph-name="threequarters" unicode="&#xbe;" horiz-adv-x="1540" 
d="M633 1362v-129l-158 -146q85 0 131.5 -32t46.5 -117v-104q0 -60 -48 -108t-101 -48h-215q-57 0 -101.5 38t-44.5 89v65h136v-39q0 -25 18.5 -38t46.5 -13h84q88 0 88 94v56q0 63 -82 63h-106v107l178 166h-223v-72h-127v168h477zM1333 0h-131v127h-377v135l283 418h152
l-297 -438v-11h239v213l39 54h92v-267h64v-104h-64v-127zM1241 1245l-731 -1077q-55 -79 -55 -121v-67h-144v122l733 1094q54 82 54 119v67h143v-137z" />
    <glyph glyph-name="questiondown" unicode="&#xbf;" horiz-adv-x="1091" 
d="M92 158l395 254v186h170v-260l-315 -188q-39 -24 -56.5 -56t-17.5 -84v-100q0 -166 160 -166h217q97 0 137.5 33.5t40.5 116.5v55h174v-94q0 -114 -78 -184t-210 -70h-299q-161 0 -239.5 77.5t-78.5 206.5v273zM487 973h170v-240h-170v240z" />
    <glyph glyph-name="Agrave" unicode="&#xc0;" horiz-adv-x="1253" 
d="M1192 0h-174v57q0 40 -11 88t-21.5 77t-33.5 87l-41 105h-567l-43 -105q-65 -160 -65 -252v-57h-175v154l486 1189v19h162v-19l483 -1193v-150zM852 561l-215 569h-19l-217 -569h451zM735 1475h-141l-203 215h205z" />
    <glyph glyph-name="Aacute" unicode="&#xc1;" horiz-adv-x="1253" 
d="M1192 0h-174v57q0 40 -11 88t-21.5 77t-33.5 87l-41 105h-567l-43 -105q-65 -160 -65 -252v-57h-175v154l486 1189v19h162v-19l483 -1193v-150zM852 561l-215 569h-19l-217 -569h451zM805 1690l-203 -215h-141l139 215h205z" />
    <glyph glyph-name="Acircumflex" unicode="&#xc2;" horiz-adv-x="1253" 
d="M1192 0h-174v57q0 40 -11 88t-21.5 77t-33.5 87l-41 105h-567l-43 -105q-65 -160 -65 -252v-57h-175v154l486 1189v19h162v-19l483 -1193v-150zM852 561l-215 569h-19l-217 -569h451zM870 1475h-122l-121 112l-121 -112h-123l156 215h176z" />
    <glyph glyph-name="Atilde" unicode="&#xc3;" horiz-adv-x="1253" 
d="M1192 0h-174v57q0 40 -11 88t-21.5 77t-33.5 87l-41 105h-567l-43 -105q-65 -160 -65 -252v-57h-175v154l486 1189v19h162v-19l483 -1193v-150zM852 561l-215 569h-19l-217 -569h451zM948 1585l-123 -110h-108q-35 0 -66.5 22t-50.5 48.5t-41 48.5t-39 22h-37
q-71 0 -71 -86v-45h-109v125l123 110h109q35 0 67.5 -22.5t52 -49t41 -49t35.5 -22.5h37q72 0 72 86v47h108v-125z" />
    <glyph glyph-name="Adieresis" unicode="&#xc4;" horiz-adv-x="1253" 
d="M1192 0h-174v57q0 40 -11 88t-21.5 77t-33.5 87l-41 105h-567l-43 -105q-65 -160 -65 -252v-57h-175v154l486 1189v19h162v-19l483 -1193v-150zM852 561l-215 569h-19l-217 -569h451zM866 1475h-164v163h164v-163zM549 1475h-164v163h164v-163z" />
    <glyph glyph-name="Aring" unicode="&#xc5;" horiz-adv-x="1253" 
d="M860 1395q0 -39 -41 -66.5t-92 -34.5l465 -1144v-150h-174v57q0 40 -11 88t-21.5 77t-33.5 87l-41 105h-567l-43 -105q-65 -160 -65 -252v-57h-175v154l465 1140q-49 9 -88 36t-39 65v116q0 48 52 76.5t114 28.5h129q62 0 114 -28.5t52 -76.5v-116zM852 561l-215 569h-19
l-217 -569h451zM766 1415v78q0 26 -28 39.5t-60 13.5h-94q-32 0 -60 -13.5t-28 -39.5v-78q0 -28 27.5 -40.5t60.5 -12.5h94q33 0 60.5 12.5t27.5 40.5z" />
    <glyph glyph-name="AE" unicode="&#xc6;" horiz-adv-x="1708" 
d="M1642 145v-145h-843v414h-408l-69 -156q-10 -23 -26 -57t-23 -49.5t-13 -36t-6 -37.5v-78h-172v154l534 1189v19h1012v-143h-659v-449h530v-147h-530v-478h673zM799 1217h-76l-270 -656h346v656z" />
    <glyph glyph-name="Ccedilla" unicode="&#xc7;" horiz-adv-x="1230" 
d="M1141 164l-236 -174h-352q-130 0 -230 61.5t-150 158.5t-50 210v522q0 113 50 210t150 158.5t230 61.5h352l236 -174v-180h-174v39q0 74 -53.5 123t-129.5 49h-204q-128 0 -205.5 -90t-77.5 -215v-486q0 -125 77.5 -215t205.5 -90h204q76 0 129.5 49t53.5 123v39h174
v-180zM895 -274q0 -53 -45.5 -94.5t-112.5 -41.5h-141q-59 0 -98 45t-39 91v38h106v-18q0 -32 19.5 -56t54.5 -24h76q35 0 54 24t19 56v49q0 28 -19 45t-54 17h-187l31 147h123l-16 -72h77q66 0 109 -33t43 -83v-90z" />
    <glyph glyph-name="Egrave" unicode="&#xc8;" horiz-adv-x="1128" 
d="M1063 0h-899v1362h883v-145h-713v-447h581v-147h-581v-478h729v-145zM717 1475h-142l-202 215h205z" />
    <glyph glyph-name="Eacute" unicode="&#xc9;" horiz-adv-x="1128" 
d="M1063 0h-899v1362h883v-145h-713v-447h581v-147h-581v-478h729v-145zM836 1690l-203 -215h-141l139 215h205z" />
    <glyph glyph-name="Ecircumflex" unicode="&#xca;" horiz-adv-x="1128" 
d="M1063 0h-899v1362h883v-145h-713v-447h581v-147h-581v-478h729v-145zM856 1475h-123l-121 112l-120 -112h-123l155 215h176z" />
    <glyph glyph-name="Edieresis" unicode="&#xcb;" horiz-adv-x="1128" 
d="M1063 0h-899v1362h883v-145h-713v-447h581v-147h-581v-478h729v-145zM842 1475h-164v163h164v-163zM524 1475h-164v163h164v-163z" />
    <glyph glyph-name="Igrave" unicode="&#xcc;" horiz-adv-x="497" 
d="M334 0h-170v1362h170v-1362zM408 1475h-142l-203 215h205z" />
    <glyph glyph-name="Iacute" unicode="&#xcd;" horiz-adv-x="497" 
d="M334 0h-170v1362h170v-1362zM436 1690l-203 -215h-141l139 215h205z" />
    <glyph glyph-name="Icircumflex" unicode="&#xce;" horiz-adv-x="497" 
d="M334 0h-170v1362h170v-1362zM494 1475h-123l-121 112l-121 -112h-123l156 215h176z" />
    <glyph glyph-name="Idieresis" unicode="&#xcf;" horiz-adv-x="497" 
d="M334 0h-170v1362h170v-1362zM489 1475h-163v163h163v-163zM172 1475h-164v163h164v-163z" />
    <glyph glyph-name="Eth" unicode="&#xd0;" horiz-adv-x="1359" 
d="M1237 897v-432q0 -200 -120 -332.5t-318 -132.5h-596v610h-164v152h164v600h596q198 0 318 -132.5t120 -332.5zM692 610h-319v-465h399q151 0 223 88.5t72 239.5v416q0 151 -72 239.5t-223 88.5h-399v-455h319v-152z" />
    <glyph glyph-name="Ntilde" unicode="&#xd1;" horiz-adv-x="1384" 
d="M1180 0h-174v37q0 65 -19 108t-69 105l-574 717h-27v-967h-153v1362h174v-37q0 -65 19 -108t69 -105l573 -717h27v967h154v-1362zM1014 1585l-123 -110h-109q-28 0 -54 14.5t-44.5 35.5t-34.5 41.5t-32.5 35t-30.5 14.5h-37q-72 0 -72 -86v-45h-108v125l123 110h108
q35 0 67.5 -22.5t52.5 -49t41.5 -49t35.5 -22.5h37q71 0 71 86v47h109v-125z" />
    <glyph glyph-name="Ograve" unicode="&#xd2;" horiz-adv-x="1341" 
d="M1219 942v-522q0 -112 -53.5 -209.5t-155.5 -159t-232 -61.5h-211q-130 0 -233.5 61.5t-157 159t-53.5 209.5v522q0 112 53.5 209.5t157 159t233.5 61.5h211q130 0 232 -61.5t155.5 -159t53.5 -209.5zM1044 438v486q0 125 -77 215t-205 90h-182q-128 0 -205.5 -90
t-77.5 -215v-486q0 -125 77.5 -215t205.5 -90h182q128 0 205 90t77 215zM797 1475h-142l-202 215h204z" />
    <glyph glyph-name="Oacute" unicode="&#xd3;" horiz-adv-x="1341" 
d="M1219 942v-522q0 -112 -53.5 -209.5t-155.5 -159t-232 -61.5h-211q-130 0 -233.5 61.5t-157 159t-53.5 209.5v522q0 112 53.5 209.5t157 159t233.5 61.5h211q130 0 232 -61.5t155.5 -159t53.5 -209.5zM1044 438v486q0 125 -77 215t-205 90h-182q-128 0 -205.5 -90
t-77.5 -215v-486q0 -125 77.5 -215t205.5 -90h182q128 0 205 90t77 215zM903 1690l-203 -215h-141l139 215h205z" />
    <glyph glyph-name="Ocircumflex" unicode="&#xd4;" horiz-adv-x="1341" 
d="M1219 942v-522q0 -112 -53.5 -209.5t-155.5 -159t-232 -61.5h-211q-130 0 -233.5 61.5t-157 159t-53.5 209.5v522q0 112 53.5 209.5t157 159t233.5 61.5h211q130 0 232 -61.5t155.5 -159t53.5 -209.5zM1044 438v486q0 125 -77 215t-205 90h-182q-128 0 -205.5 -90
t-77.5 -215v-486q0 -125 77.5 -215t205.5 -90h182q128 0 205 90t77 215zM913 1475h-122l-121 112l-121 -112h-123l156 215h176z" />
    <glyph glyph-name="Otilde" unicode="&#xd5;" horiz-adv-x="1341" 
d="M1219 942v-522q0 -112 -53.5 -209.5t-155.5 -159t-232 -61.5h-211q-130 0 -233.5 61.5t-157 159t-53.5 209.5v522q0 112 53.5 209.5t157 159t233.5 61.5h211q130 0 232 -61.5t155.5 -159t53.5 -209.5zM1044 438v486q0 125 -77 215t-205 90h-182q-128 0 -205.5 -90
t-77.5 -215v-486q0 -125 77.5 -215t205.5 -90h182q128 0 205 90t77 215zM993 1585l-123 -110h-108q-35 0 -66.5 22t-50.5 48.5t-41 48.5t-39 22h-37q-71 0 -71 -86v-45h-109v125l123 110h109q35 0 67.5 -22.5t52 -49t41 -49t35.5 -22.5h37q72 0 72 86v47h108v-125z" />
    <glyph glyph-name="Odieresis" unicode="&#xd6;" horiz-adv-x="1341" 
d="M1219 942v-522q0 -112 -53.5 -209.5t-155.5 -159t-232 -61.5h-211q-130 0 -233.5 61.5t-157 159t-53.5 209.5v522q0 112 53.5 209.5t157 159t233.5 61.5h211q130 0 232 -61.5t155.5 -159t53.5 -209.5zM1044 438v486q0 125 -77 215t-205 90h-182q-128 0 -205.5 -90
t-77.5 -215v-486q0 -125 77.5 -215t205.5 -90h182q128 0 205 90t77 215zM911 1475h-163v163h163v-163zM594 1475h-164v163h164v-163z" />
    <glyph glyph-name="multiply" unicode="&#xd7;" 
d="M256 813l104 102l228 -229l227 227l100 -100l-223 -229l228 -230l-103 -102l-229 229l-230 -227l-100 98l227 232z" />
    <glyph glyph-name="Oslash" unicode="&#xd8;" horiz-adv-x="1327" 
d="M1245 1403l-139 -178q86 -113 86 -242v-604q0 -99 -49.5 -188t-140 -145t-199.5 -56h-277q-131 0 -239 84l-94 -115h-111l139 180q-84 110 -84 240v604q0 99 49.5 188t140 145t199.5 56h277q129 0 237 -84l95 115h110zM950 1161q-65 68 -151 68h-269q-95 0 -157 -73.5
t-62 -170.5v-608q0 -40 17 -90zM1018 377v608q0 40 -17 92l-624 -876q68 -68 153 -68h269q95 0 157 73.5t62 170.5z" />
    <glyph glyph-name="Ugrave" unicode="&#xd9;" horiz-adv-x="1384" 
d="M1180 1362v-983q0 -153 -113.5 -271t-278.5 -118h-233q-165 0 -278 118t-113 271v983h168v-979q0 -96 72 -173t169 -77h197q97 0 169.5 77t72.5 173v979h168zM780 1475h-141l-203 215h205z" />
    <glyph glyph-name="Uacute" unicode="&#xda;" horiz-adv-x="1384" 
d="M1180 1362v-983q0 -153 -113.5 -271t-278.5 -118h-233q-165 0 -278 118t-113 271v983h168v-979q0 -96 72 -173t169 -77h197q97 0 169.5 77t72.5 173v979h168zM924 1690l-203 -215h-141l139 215h205z" />
    <glyph glyph-name="Ucircumflex" unicode="&#xdb;" horiz-adv-x="1384" 
d="M1180 1362v-983q0 -153 -113.5 -271t-278.5 -118h-233q-165 0 -278 118t-113 271v983h168v-979q0 -96 72 -173t169 -77h197q97 0 169.5 77t72.5 173v979h168zM920 1475h-123l-121 112l-121 -112h-123l156 215h176z" />
    <glyph glyph-name="Udieresis" unicode="&#xdc;" horiz-adv-x="1384" 
d="M1180 1362v-983q0 -153 -113.5 -271t-278.5 -118h-233q-165 0 -278 118t-113 271v983h168v-979q0 -96 72 -173t169 -77h197q97 0 169.5 77t72.5 173v979h168zM918 1475h-164v163h164v-163zM600 1475h-164v163h164v-163z" />
    <glyph glyph-name="Yacute" unicode="&#xdd;" horiz-adv-x="1150" 
d="M1100 1214l-438 -753v-461h-170v461l-441 749v152h174v-57q0 -51 70 -181l268 -483h27l268 483q5 8 16 27.5t15 27t12 23.5t11 25t7 23t5.5 27t1.5 28v57h174v-148zM815 1659l-203 -215h-141l139 215h205z" />
    <glyph glyph-name="Thorn" unicode="&#xde;" horiz-adv-x="1161" 
d="M1079 801v-183q0 -71 -32 -135t-83 -107.5t-114.5 -69t-126.5 -25.5h-389v-281h-170v1362h170v-225h364q102 0 188 -39t139.5 -117t53.5 -180zM903 635v153q0 99 -64 152t-180 53h-325v-573h352q87 0 152 61.5t65 153.5z" />
    <glyph glyph-name="germandbls" unicode="&#xdf;" horiz-adv-x="1196" 
d="M1073 475v-276l-211 -199h-362v125h200q88 0 146.5 61t58.5 148v141q0 76 -66 118t-161 42h-133v129h86q92 0 160.5 56t68.5 132v92q0 99 -41.5 152t-144.5 53h-197q-71 0 -118.5 -64t-47.5 -143v-1257h-168v1286q0 117 92.5 209t210.5 92h254q153 0 237.5 -84t84.5 -231
v-189l-162 -143q213 -91 213 -250z" />
    <glyph glyph-name="agrave" unicode="&#xe0;" horiz-adv-x="1064" 
d="M983 0h-123l-90 113l-152 -123h-249q-112 0 -194.5 73.5t-82.5 180.5v100q0 95 73.5 163t184.5 68h402v142q0 141 -134 141h-190q-52 0 -87 -18.5t-38 -44.5l-4 -35h-154v127l158 96h348q111 0 184.5 -68t73.5 -178v-530l74 -90v-117zM752 336v117h-365
q-56 0 -92.5 -33.5t-36.5 -87.5v-68q0 -72 46.5 -110.5t123.5 -38.5h96q80 0 154 66t74 155zM649 1085h-141l-203 215h205z" />
    <glyph glyph-name="aacute" unicode="&#xe1;" horiz-adv-x="1064" 
d="M983 0h-123l-90 113l-152 -123h-249q-112 0 -194.5 73.5t-82.5 180.5v100q0 95 73.5 163t184.5 68h402v142q0 141 -134 141h-190q-52 0 -87 -18.5t-38 -44.5l-4 -35h-154v127l158 96h348q111 0 184.5 -68t73.5 -178v-530l74 -90v-117zM752 336v117h-365
q-56 0 -92.5 -33.5t-36.5 -87.5v-68q0 -72 46.5 -110.5t123.5 -38.5h96q80 0 154 66t74 155zM739 1300l-202 -215h-142l140 215h204z" />
    <glyph glyph-name="acircumflex" unicode="&#xe2;" horiz-adv-x="1064" 
d="M983 0h-123l-90 113l-152 -123h-249q-112 0 -194.5 73.5t-82.5 180.5v100q0 95 73.5 163t184.5 68h402v142q0 141 -134 141h-190q-52 0 -87 -18.5t-38 -44.5l-4 -35h-154v127l158 96h348q111 0 184.5 -68t73.5 -178v-530l74 -90v-117zM752 336v117h-365
q-56 0 -92.5 -33.5t-36.5 -87.5v-68q0 -72 46.5 -110.5t123.5 -38.5h96q80 0 154 66t74 155zM782 1085h-123l-120 113l-121 -113h-123l156 215h176z" />
    <glyph glyph-name="atilde" unicode="&#xe3;" horiz-adv-x="1064" 
d="M983 0h-123l-90 113l-152 -123h-249q-112 0 -194.5 73.5t-82.5 180.5v100q0 95 73.5 163t184.5 68h402v142q0 141 -134 141h-190q-52 0 -87 -18.5t-38 -44.5l-4 -35h-154v127l158 96h348q111 0 184.5 -68t73.5 -178v-530l74 -90v-117zM752 336v117h-365
q-56 0 -92.5 -33.5t-36.5 -87.5v-68q0 -72 46.5 -110.5t123.5 -38.5h96q80 0 154 66t74 155zM848 1196l-123 -111h-109q-28 0 -54 14.5t-44.5 35.5t-34.5 42t-32.5 35.5t-30.5 14.5h-37q-72 0 -72 -86v-45h-108v125l123 110h108q35 0 67.5 -22.5t52.5 -49t41.5 -49
t35.5 -22.5h37q71 0 71 86v47h109v-125z" />
    <glyph glyph-name="adieresis" unicode="&#xe4;" horiz-adv-x="1064" 
d="M983 0h-123l-90 113l-152 -123h-249q-112 0 -194.5 73.5t-82.5 180.5v100q0 95 73.5 163t184.5 68h402v142q0 141 -134 141h-190q-52 0 -87 -18.5t-38 -44.5l-4 -35h-154v127l158 96h348q111 0 184.5 -68t73.5 -178v-530l74 -90v-117zM752 336v117h-365
q-56 0 -92.5 -33.5t-36.5 -87.5v-68q0 -72 46.5 -110.5t123.5 -38.5h96q80 0 154 66t74 155zM776 1085h-164v164h164v-164zM459 1085h-164v164h164v-164z" />
    <glyph glyph-name="aring" unicode="&#xe5;" horiz-adv-x="1064" 
d="M983 0h-123l-90 113l-152 -123h-249q-112 0 -194.5 73.5t-82.5 180.5v100q0 95 73.5 163t184.5 68h402v142q0 141 -134 141h-190q-52 0 -87 -18.5t-38 -44.5l-4 -35h-154v127l158 96h348q111 0 184.5 -68t73.5 -178v-530l74 -90v-117zM752 336v117h-365
q-56 0 -92.5 -33.5t-36.5 -87.5v-68q0 -72 46.5 -110.5t123.5 -38.5h96q80 0 154 66t74 155zM764 1182q0 -46 -52.5 -74.5t-113.5 -28.5h-129q-61 0 -113.5 28.5t-52.5 74.5v116q0 48 52 76.5t114 28.5h129q62 0 114 -28.5t52 -76.5v-116zM670 1202v78q0 26 -28 39.5
t-60 13.5h-95q-32 0 -60 -13.5t-28 -39.5v-78q0 -28 27.5 -40.5t60.5 -12.5h95q33 0 60.5 12.5t27.5 40.5z" />
    <glyph glyph-name="ae" unicode="&#xe6;" horiz-adv-x="1673" 
d="M1563 668v-205h-643v-125q0 -90 59 -156.5t151 -66.5h95q75 0 124.5 37t49.5 102v10h164v-129l-187 -145h-280q-91 0 -167.5 40.5t-123.5 108.5l-187 -149h-249q-112 0 -194.5 73.5t-82.5 180.5v98q0 97 73.5 165t184.5 68h402v142q0 141 -134 141h-190q-52 0 -87 -18.5
t-38 -44.5l-4 -35h-154v127l158 96h348q131 0 207 -92q92 92 225 92h201q109 0 194 -98t85 -217zM752 336v117h-365q-56 0 -92.5 -33.5t-36.5 -87.5v-68q0 -72 46.5 -110.5t123.5 -38.5h96q80 0 154 66t74 155zM1403 588v57q0 96 -48.5 154.5t-131.5 58.5h-119
q-88 0 -136 -67.5t-48 -165.5v-37h483z" />
    <glyph glyph-name="ccedilla" unicode="&#xe7;" horiz-adv-x="1030" 
d="M938 135l-186 -145h-297q-144 0 -244 95.5t-100 219.5v363q0 124 100 219.5t244 95.5h297l186 -145v-129h-164v10q0 65 -49.5 102t-124.5 37h-111q-91 0 -148.5 -67t-57.5 -156v-297q0 -89 57.5 -156t148.5 -67h111q75 0 124.5 37t49.5 102v10h164v-129zM793 -274
q0 -53 -45.5 -94.5t-112.5 -41.5h-141q-59 0 -98.5 45t-39.5 91v38h107v-18q0 -32 19.5 -56t54.5 -24h75q35 0 54.5 24t19.5 56v49q0 28 -19.5 45t-54.5 17h-186l31 147h123l-17 -72h78q66 0 109 -33t43 -83v-90z" />
    <glyph glyph-name="egrave" unicode="&#xe8;" horiz-adv-x="1048" 
d="M938 668v-205h-659v-125q0 -90 59 -156.5t151 -66.5h111q75 0 124.5 37t49.5 102v10h164v-129l-186 -145h-297q-144 0 -244 95.5t-100 219.5v332q0 88 39 166t116.5 129t175.5 51h217q109 0 194 -98t85 -217zM778 588v57q0 96 -48.5 154.5t-131.5 58.5h-135
q-88 0 -136 -67.5t-48 -165.5v-37h499zM659 1085h-141l-203 215h205z" />
    <glyph glyph-name="eacute" unicode="&#xe9;" horiz-adv-x="1048" 
d="M938 668v-205h-659v-125q0 -90 59 -156.5t151 -66.5h111q75 0 124.5 37t49.5 102v10h164v-129l-186 -145h-297q-144 0 -244 95.5t-100 219.5v332q0 88 39 166t116.5 129t175.5 51h217q109 0 194 -98t85 -217zM778 588v57q0 96 -48.5 154.5t-131.5 58.5h-135
q-88 0 -136 -67.5t-48 -165.5v-37h499zM766 1300l-203 -215h-141l139 215h205z" />
    <glyph glyph-name="ecircumflex" unicode="&#xea;" horiz-adv-x="1048" 
d="M938 668v-205h-659v-125q0 -90 59 -156.5t151 -66.5h111q75 0 124.5 37t49.5 102v10h164v-129l-186 -145h-297q-144 0 -244 95.5t-100 219.5v332q0 88 39 166t116.5 129t175.5 51h217q109 0 194 -98t85 -217zM778 588v57q0 96 -48.5 154.5t-131.5 58.5h-135
q-88 0 -136 -67.5t-48 -165.5v-37h499zM778 1085h-123l-120 113l-121 -113h-123l155 215h177z" />
    <glyph glyph-name="edieresis" unicode="&#xeb;" horiz-adv-x="1048" 
d="M938 668v-205h-659v-125q0 -90 59 -156.5t151 -66.5h111q75 0 124.5 37t49.5 102v10h164v-129l-186 -145h-297q-144 0 -244 95.5t-100 219.5v332q0 88 39 166t116.5 129t175.5 51h217q109 0 194 -98t85 -217zM778 588v57q0 96 -48.5 154.5t-131.5 58.5h-135
q-88 0 -136 -67.5t-48 -165.5v-37h499zM776 1085h-164v164h164v-164zM459 1085h-164v164h164v-164z" />
    <glyph glyph-name="igrave" unicode="&#xec;" horiz-adv-x="462" 
d="M319 0h-176v973h176v-973zM369 1085h-142l-202 215h204z" />
    <glyph glyph-name="iacute" unicode="&#xed;" horiz-adv-x="462" 
d="M319 0h-176v973h176v-973zM422 1300l-203 -215h-141l139 215h205z" />
    <glyph glyph-name="icircumflex" unicode="&#xee;" horiz-adv-x="462" 
d="M319 0h-176v973h176v-973zM475 1085h-123l-121 113l-120 -113h-123l155 215h176z" />
    <glyph glyph-name="idieresis" unicode="&#xef;" horiz-adv-x="462" 
d="M319 0h-176v973h176v-973zM473 1085h-164v164h164v-164zM156 1085h-164v164h164v-164z" />
    <glyph glyph-name="eth" unicode="&#xf0;" horiz-adv-x="1120" 
d="M991 983v-637q0 -67 -22.5 -130t-64 -114t-107 -81.5t-144.5 -30.5h-194q-78 0 -143.5 30.5t-106.5 81.5t-63.5 114t-22.5 130v285q0 89 37.5 167.5t116 131.5t182.5 53h194q89 0 166 -41v41q0 135 -21 203t-72 95.5t-153 27.5h-243v125h250q208 0 309.5 -112.5
t101.5 -338.5zM825 356v338q0 76 -37 120t-112 44h-189q-96 0 -147 -68.5t-51 -175.5v-256q0 -107 51 -175t147 -68h140q96 0 147 68t51 173zM588 1157l403 307v-94l-403 -307v94z" />
    <glyph glyph-name="ntilde" unicode="&#xf1;" horiz-adv-x="1093" 
d="M954 647v-647h-163v676q0 84 -35.5 133t-110.5 49h-96q-89 0 -165.5 -72.5t-76.5 -154.5v-631h-164v973h133l11 -107h18l144 117h235q270 0 270 -336zM879 1196l-123 -111h-109q-28 0 -54 14.5t-44.5 35.5t-34.5 42t-32.5 35.5t-30.5 14.5h-37q-72 0 -72 -86v-45h-109
v125l123 110h109q35 0 67.5 -22.5t52.5 -49t41.5 -49t35.5 -22.5h36q72 0 72 86v47h109v-125z" />
    <glyph glyph-name="ograve" unicode="&#xf2;" horiz-adv-x="1089" 
d="M979 627v-281q0 -67 -22.5 -130t-64 -114t-107 -81.5t-144.5 -30.5h-195q-104 0 -182 53t-115.5 132.5t-37.5 170.5v281q0 91 37.5 170.5t115.5 132.5t182 53h195q79 0 144.5 -30.5t107 -81.5t64 -114t22.5 -130zM813 358v256q0 107 -51.5 175.5t-147.5 68.5h-139
q-96 0 -147.5 -68.5t-51.5 -175.5v-256q0 -106 51.5 -174.5t147.5 -68.5h139q96 0 147.5 68.5t51.5 174.5zM657 1085h-141l-203 215h205z" />
    <glyph glyph-name="oacute" unicode="&#xf3;" horiz-adv-x="1089" 
d="M979 627v-281q0 -67 -22.5 -130t-64 -114t-107 -81.5t-144.5 -30.5h-195q-104 0 -182 53t-115.5 132.5t-37.5 170.5v281q0 91 37.5 170.5t115.5 132.5t182 53h195q79 0 144.5 -30.5t107 -81.5t64 -114t22.5 -130zM813 358v256q0 107 -51.5 175.5t-147.5 68.5h-139
q-96 0 -147.5 -68.5t-51.5 -175.5v-256q0 -106 51.5 -174.5t147.5 -68.5h139q96 0 147.5 68.5t51.5 174.5zM768 1300l-203 -215h-141l139 215h205z" />
    <glyph glyph-name="ocircumflex" unicode="&#xf4;" horiz-adv-x="1089" 
d="M979 627v-281q0 -67 -22.5 -130t-64 -114t-107 -81.5t-144.5 -30.5h-195q-104 0 -182 53t-115.5 132.5t-37.5 170.5v281q0 91 37.5 170.5t115.5 132.5t182 53h195q79 0 144.5 -30.5t107 -81.5t64 -114t22.5 -130zM813 358v256q0 107 -51.5 175.5t-147.5 68.5h-139
q-96 0 -147.5 -68.5t-51.5 -175.5v-256q0 -106 51.5 -174.5t147.5 -68.5h139q96 0 147.5 68.5t51.5 174.5zM788 1085h-122l-121 113l-121 -113h-123l156 215h176z" />
    <glyph glyph-name="otilde" unicode="&#xf5;" horiz-adv-x="1089" 
d="M979 627v-281q0 -67 -22.5 -130t-64 -114t-107 -81.5t-144.5 -30.5h-195q-104 0 -182 53t-115.5 132.5t-37.5 170.5v281q0 91 37.5 170.5t115.5 132.5t182 53h195q79 0 144.5 -30.5t107 -81.5t64 -114t22.5 -130zM813 358v256q0 107 -51.5 175.5t-147.5 68.5h-139
q-96 0 -147.5 -68.5t-51.5 -175.5v-256q0 -106 51.5 -174.5t147.5 -68.5h139q96 0 147.5 68.5t51.5 174.5zM866 1196l-123 -111h-108q-28 0 -54 14.5t-44.5 35.5t-35 42t-33 35.5t-30.5 14.5h-37q-71 0 -71 -86v-45h-109v125l123 110h109q35 0 67.5 -22.5t52 -49t41 -49
t35.5 -22.5h37q72 0 72 86v47h108v-125z" />
    <glyph glyph-name="odieresis" unicode="&#xf6;" horiz-adv-x="1089" 
d="M979 627v-281q0 -67 -22.5 -130t-64 -114t-107 -81.5t-144.5 -30.5h-195q-104 0 -182 53t-115.5 132.5t-37.5 170.5v281q0 91 37.5 170.5t115.5 132.5t182 53h195q79 0 144.5 -30.5t107 -81.5t64 -114t22.5 -130zM813 358v256q0 107 -51.5 175.5t-147.5 68.5h-139
q-96 0 -147.5 -68.5t-51.5 -175.5v-256q0 -106 51.5 -174.5t147.5 -68.5h139q96 0 147.5 68.5t51.5 174.5zM788 1085h-163v164h163v-164zM471 1085h-164v164h164v-164z" />
    <glyph glyph-name="divide" unicode="&#xf7;" 
d="M659 834h-141v139h141v-139zM950 518h-723v152h723v-152zM659 211h-141v139h141v-139z" />
    <glyph glyph-name="oslash" unicode="&#xf8;" horiz-adv-x="1159" 
d="M1014 627v-281q0 -67 -22.5 -130t-64 -114t-107 -81.5t-144.5 -30.5h-195q-125 0 -211 73l-69 -83h-90l110 133q-76 102 -76 233v281q0 67 22.5 130t63.5 114t106.5 81.5t143.5 30.5h195q121 0 207 -70l75 91h91l-117 -142q82 -102 82 -235zM848 358v256q0 68 -21 121
l-462 -557q53 -63 145 -63h139q96 0 147.5 68.5t51.5 174.5zM311 358q0 -62 19 -114l458 555q-53 59 -139 59h-139q-96 0 -147.5 -68.5t-51.5 -175.5v-256z" />
    <glyph glyph-name="ugrave" unicode="&#xf9;" horiz-adv-x="1093" 
d="M954 0h-133l-10 106h-18l-164 -116h-215q-271 0 -271 336v647h164v-660q0 -85 34.5 -137.5t109.5 -52.5h118q89 0 155.5 66.5t66.5 150.5v633h163v-973zM670 1085h-142l-202 215h204z" />
    <glyph glyph-name="uacute" unicode="&#xfa;" horiz-adv-x="1093" 
d="M954 0h-133l-10 106h-18l-164 -116h-215q-271 0 -271 336v647h164v-660q0 -85 34.5 -137.5t109.5 -52.5h118q89 0 155.5 66.5t66.5 150.5v633h163v-973zM774 1300l-203 -215h-141l139 215h205z" />
    <glyph glyph-name="ucircumflex" unicode="&#xfb;" horiz-adv-x="1093" 
d="M954 0h-133l-10 106h-18l-164 -116h-215q-271 0 -271 336v647h164v-660q0 -85 34.5 -137.5t109.5 -52.5h118q89 0 155.5 66.5t66.5 150.5v633h163v-973zM801 1085h-123l-121 113l-121 -113h-123l156 215h176z" />
    <glyph glyph-name="udieresis" unicode="&#xfc;" horiz-adv-x="1093" 
d="M954 0h-133l-10 106h-18l-164 -116h-215q-271 0 -271 336v647h164v-660q0 -85 34.5 -137.5t109.5 -52.5h118q89 0 155.5 66.5t66.5 150.5v633h163v-973zM797 1085h-164v164h164v-164zM479 1085h-164v164h164v-164z" />
    <glyph glyph-name="yacute" unicode="&#xfd;" horiz-adv-x="1034" 
d="M952 856l-483 -1145l-168 -141h-260v143h137q68 0 114 34.5t89 133.5l65 150l-348 827v115h166v-29q0 -25 3.5 -49.5t13 -54.5t14 -43t20 -50t17.5 -42l182 -474h25l190 492q57 148 57 221v29h166v-117zM776 1300l-203 -215h-141l139 215h205z" />
    <glyph glyph-name="thorn" unicode="&#xfe;" horiz-adv-x="1118" 
d="M1008 643v-317q0 -129 -83.5 -232.5t-213.5 -103.5h-179q-75 0 -136.5 34.5t-88.5 86.5v-531h-164l2 1854h164v-568l2 -4q36 60 97.5 90.5t134.5 30.5h164q138 0 219.5 -93t81.5 -247zM840 338v280q0 118 -45.5 180t-128.5 62h-136q-99 0 -163 -68t-64 -167v-308
q0 -84 72 -143t149 -59h125q86 0 138.5 65.5t52.5 157.5z" />
    <glyph glyph-name="ydieresis" unicode="&#xff;" horiz-adv-x="1034" 
d="M952 856l-483 -1145l-168 -141h-260v143h137q68 0 114 34.5t89 133.5l65 150l-348 827v115h166v-29q0 -25 3.5 -49.5t13 -54.5t14 -43t20 -50t17.5 -42l182 -474h25l190 492q57 148 57 221v29h166v-117zM774 1085h-164v164h164v-164zM457 1085h-164v164h164v-164z" />
    <glyph glyph-name="dotlessi" unicode="&#x131;" horiz-adv-x="462" 
d="M319 0h-176v973h176v-973z" />
    <glyph glyph-name="Lslash" unicode="&#x141;" horiz-adv-x="1099" 
d="M49 524v160l164 51v627h170v-574l227 72v-160l-227 -71v-484h672v-145h-842v575z" />
    <glyph glyph-name="lslash" unicode="&#x142;" horiz-adv-x="567" 
d="M59 524v160l144 43v707h164v-656l141 45v-159l-141 -46v-618h-164v567z" />
    <glyph glyph-name="OE" unicode="&#x152;" horiz-adv-x="1732" 
d="M1638 145v-145h-1153q-85 0 -169.5 55t-138.5 142.5t-54 177.5v612q0 90 54 177.5t138.5 142.5t169.5 55h1139v-145h-670v-447h539v-147h-539v-478h684zM786 145v1072h-270q-87 0 -153 -79t-66 -171v-572q0 -92 66 -171t153 -79h270z" />
    <glyph glyph-name="oe" unicode="&#x153;" horiz-adv-x="1740" 
d="M1151 -10q-77 0 -147 34.5t-113 88.5q-85 -123 -250 -123h-195q-104 0 -182 53t-115.5 132.5t-37.5 170.5v281q0 91 37.5 170.5t115.5 132.5t182 53h195q167 0 252 -127q40 58 105 92.5t145 34.5h289l194 -195v-325h-651v-125q0 -77 63 -150t148 -73h108q75 0 124.5 37
t49.5 102v10h162v-129l-184 -145h-295zM813 358v256q0 107 -51.5 175.5t-147.5 68.5h-139q-96 0 -147.5 -68.5t-51.5 -175.5v-256q0 -106 51.5 -174.5t147.5 -68.5h139q96 0 147.5 68.5t51.5 174.5zM1468 588v57q0 96 -48.5 154.5t-131.5 58.5h-123q-83 0 -136.5 -70
t-53.5 -153v-47h493z" />
    <glyph glyph-name="Scaron" unicode="&#x160;" 
d="M1061 471v-215q0 -61 -39.5 -121.5t-113 -102.5t-160.5 -42h-412l-213 160v184h164v-39q0 -82 60 -125t134 -43h209q82 0 137.5 46.5t55.5 129.5v146q0 59 -32 99.5t-95 53.5l-418 88q-93 19 -150 83t-57 161v172q0 107 82 186.5t213 79.5h412l213 -160v-194h-164v39
q0 75 -50 128.5t-124 53.5h-238q-77 0 -124.5 -37.5t-47.5 -111.5v-127q0 -52 35.5 -87.5t87.5 -46.5l420 -90q106 -23 160.5 -92t54.5 -176zM713 1690h123l-156 -215h-176l-156 215h123l121 -113z" />
    <glyph glyph-name="scaron" unicode="&#x161;" horiz-adv-x="1026" 
d="M895 319v-112q0 -79 -69 -148t-169 -69h-395l-160 141v133h156l4 -31q8 -68 50 -96t112 -28h158q63 0 104 29.5t41 80.5v64q0 54 -32.5 82t-112.5 47l-260 59q-211 48 -211 209v86q0 96 68.5 156.5t172.5 60.5h363l159 -141v-133h-155l-4 30q-16 125 -162 125h-158
q-125 0 -125 -108v-58q0 -67 125 -96l303 -72q104 -25 150.5 -75t46.5 -136zM733 1300q0 -68 -12 -110.5t-41.5 -65.5t-68 -31t-101.5 -8t-101.5 8t-68 31t-41.5 65.5t-12 110.5h98q0 -63 26.5 -81.5t98.5 -18.5t99.5 18.5t27.5 81.5h96z" />
    <glyph glyph-name="Ydieresis" unicode="&#x178;" horiz-adv-x="1212" 
d="M1100 1214l-438 -753v-461h-170v461l-441 749v152h174v-57q0 -51 70 -181l268 -483h27l268 483q5 8 16 27.5t15 27t12 23.5t11 25t7 23t5.5 27t1.5 28v57h174v-148zM813 1479h-164v163h164v-163zM496 1479h-164v163h164v-163z" />
    <glyph glyph-name="Zcaron" unicode="&#x17d;" horiz-adv-x="1144" 
d="M1063 0h-940v272l745 875v70h-733v145h897v-272l-745 -875v-70h776v-145zM686 1690h123l-156 -215h-176l-155 215h122l121 -113z" />
    <glyph glyph-name="zcaron" unicode="&#x17e;" horiz-adv-x="944" 
d="M883 0h-772v188l565 623v37h-574v125h752v-189l-565 -622v-37h594v-125zM586 1300h123l-156 -215h-176l-156 215h123l121 -112z" />
    <glyph glyph-name="florin" unicode="&#x192;" horiz-adv-x="917" 
d="M901 1434l-22 -134h-183q-73 0 -112.5 -54.5t-53.5 -135.5l-24 -137h311l-20 -123h-314l-172 -979q-6 -35 -19 -70.5t-39.5 -76.5t-61.5 -72t-89 -51.5t-118 -20.5h-201l24 133h170q73 0 118 56t59 135l168 946h-232l23 123h229l31 170q6 35 19 70.5t39.5 76.5t61.5 72
t89 51.5t118 20.5h201z" />
    <glyph glyph-name="circumflex" unicode="&#x2c6;" horiz-adv-x="733" 
d="M610 1085h-123l-120 113l-121 -113h-123l156 215h176z" />
    <glyph glyph-name="caron" unicode="&#x2c7;" horiz-adv-x="733" 
d="M487 1300h123l-155 -215h-176l-156 215h123l121 -112z" />
    <glyph glyph-name="breve" unicode="&#x2d8;" horiz-adv-x="692" 
d="M569 1300q0 -68 -12 -110.5t-41.5 -65.5t-68 -31t-101.5 -8t-101.5 8t-68 31t-41.5 65.5t-12 110.5h98q0 -63 26.5 -81.5t98.5 -18.5t99.5 18.5t27.5 81.5h96z" />
    <glyph glyph-name="dotaccent" unicode="&#x2d9;" horiz-adv-x="419" 
d="M297 1085h-174v189h174v-189z" />
    <glyph glyph-name="ring" unicode="&#x2da;" horiz-adv-x="665" 
d="M563 1182q0 -46 -52.5 -74.5t-113.5 -28.5h-129q-61 0 -113.5 28.5t-52.5 74.5v116q0 48 52 76.5t114 28.5h129q62 0 114 -28.5t52 -76.5v-116zM469 1202v78q0 26 -28 39.5t-60 13.5h-94q-32 0 -60 -13.5t-28 -39.5v-78q0 -28 27.5 -40.5t60.5 -12.5h94q33 0 60.5 12.5
t27.5 40.5z" />
    <glyph glyph-name="ogonek" unicode="&#x2db;" horiz-adv-x="534" 
d="M412 -403h-109q-180 0 -180 143q0 47 37 117l76 147h114l-98 -190q-19 -38 -19 -64q0 -34 24.5 -45.5t78.5 -11.5h76v-96z" />
    <glyph glyph-name="tilde" unicode="&#x2dc;" horiz-adv-x="890" 
d="M768 1196l-123 -111h-108q-28 0 -54 14.5t-44.5 35.5t-35 42t-33 35.5t-30.5 14.5h-37q-72 0 -72 -86v-45h-108v125l123 110h108q35 0 67.5 -22.5t52.5 -49t41.5 -49t35.5 -22.5h37q71 0 71 86v47h109v-125z" />
    <glyph glyph-name="hungarumlaut" unicode="&#x2dd;" horiz-adv-x="753" 
d="M631 1300l-182 -215h-99l115 215h166zM403 1300l-182 -215h-98l115 215h165z" />
    <glyph glyph-name="pi" unicode="&#x3c0;" 
d="M1063 827h-164v-632l78 -78v-117h-100l-125 121v706h-320v-827h-147v827h-166v146h944v-146z" />
    <glyph glyph-name="endash" unicode="&#x2013;" horiz-adv-x="1062" 
d="M940 518h-817v152h817v-152z" />
    <glyph glyph-name="emdash" unicode="&#x2014;" horiz-adv-x="1867" 
d="M1757 518h-1634v152h1634v-152z" />
    <glyph glyph-name="quoteleft" unicode="&#x2018;" horiz-adv-x="411" 
d="M289 983h-187l66 379h121v-379z" />
    <glyph glyph-name="quoteright" unicode="&#x2019;" horiz-adv-x="409" 
d="M307 1362l-63 -381h-121v381h184z" />
    <glyph glyph-name="quotesinglbase" unicode="&#x201a;" horiz-adv-x="419" 
d="M317 184l-67 -381h-127v381h194z" />
    <glyph glyph-name="quotedblleft" unicode="&#x201c;" horiz-adv-x="741" 
d="M618 983h-188l66 379h122v-379zM291 983h-189l66 379h123v-379z" />
    <glyph glyph-name="quotedblright" unicode="&#x201d;" horiz-adv-x="700" 
d="M598 1362l-61 -379h-117v379h178zM301 1362l-61 -379h-117v379h178z" />
    <glyph glyph-name="quotedblbase" unicode="&#x201e;" horiz-adv-x="706" 
d="M317 184l-67 -381h-127v381h194zM604 184l-67 -381h-127v381h194z" />
    <glyph glyph-name="dagger" unicode="&#x2020;" horiz-adv-x="1040" 
d="M877 788h-281v-1198h-162v1198h-270v142h270v432h162v-432h281v-142z" />
    <glyph glyph-name="daggerdbl" unicode="&#x2021;" horiz-adv-x="1040" 
d="M877 317h-281v-727h-162v727h-270v140h270v331h-270v142h270v432h162v-432h281v-142h-281v-331h281v-140z" />
    <glyph glyph-name="bullet" unicode="&#x2022;" horiz-adv-x="964" 
d="M698 872v-411h-432v411h432z" />
    <glyph glyph-name="ellipsis" unicode="&#x2026;" horiz-adv-x="1228" 
d="M1106 0h-188v180h188v-180zM709 0h-189v180h189v-180zM311 0h-188v180h188v-180z" />
    <glyph glyph-name="perthousand" unicode="&#x2030;" horiz-adv-x="2179" 
d="M672 850q0 -52 -51.5 -109t-116.5 -57h-193q-65 0 -116.5 57t-51.5 109v346q0 52 51.5 109t116.5 57h193q65 0 116.5 -57t51.5 -109v-346zM1419 166q0 -52 -51.5 -109t-116.5 -57h-192q-65 0 -116.5 57t-51.5 109v346q0 52 51.5 109t116.5 57h192q65 0 116.5 -57
t51.5 -109v-346zM537 883v280q0 37 -20.5 67t-57.5 30h-103q-37 0 -57 -30t-20 -67v-280q0 -38 20 -67.5t57 -29.5h103q37 0 57.5 29.5t20.5 67.5zM1284 199v280q0 36 -20.5 66t-57.5 30h-102q-37 0 -57.5 -30t-20.5 -66v-280q0 -38 20.5 -67.5t57.5 -29.5h102
q37 0 57.5 29.5t20.5 67.5zM1245 1245l-731 -1077q-55 -79 -55 -121v-67h-144v122l734 1094q53 80 53 119v67h143v-137zM2036 166q0 -52 -51.5 -109t-116.5 -57h-193q-65 0 -116.5 57t-51.5 109v346q0 52 51.5 109t116.5 57h193q65 0 116.5 -57t51.5 -109v-346zM1901 199
v280q0 36 -20.5 66t-57.5 30h-103q-37 0 -57.5 -30t-20.5 -66v-280q0 -38 20.5 -67.5t57.5 -29.5h103q37 0 57.5 29.5t20.5 67.5z" />
    <glyph glyph-name="guilsinglleft" unicode="&#x2039;" horiz-adv-x="540" 
d="M459 176h-154l-223 361l223 358h154l-223 -358z" />
    <glyph glyph-name="guilsinglright" unicode="&#x203a;" horiz-adv-x="518" 
d="M457 539l-221 -361h-154l223 361l-223 358h154z" />
    <glyph glyph-name="fraction" unicode="&#x2044;" horiz-adv-x="1296" 
d="M1114 1245l-731 -1077q-55 -79 -55 -121v-67h-144v122l734 1094q53 73 53 119v67h143v-137z" />
    <glyph glyph-name="Euro" unicode="&#x20ac;" 
d="M1133 164l-236 -174h-311q-98 0 -174 35.5t-122 96.5t-69.5 136.5t-23.5 161.5v43h-150v127h150v166h-150v127h150v59q0 86 23.5 161.5t69.5 136.5t122 96.5t174 35.5h311l236 -174v-180h-175v39q0 74 -53 123t-129 49h-164q-85 0 -141 -44.5t-78 -110.5t-22 -150v-41
h452v-127h-452v-166h317v-127h-317v-25q0 -84 22 -150t78 -110.5t141 -44.5h164q76 0 129 49t53 123v39h175v-180z" />
    <glyph glyph-name="trademark" unicode="&#x2122;" horiz-adv-x="1572" 
d="M1409 670h-117v381h-12l-121 -209q-29 -53 -29 -88v-21h-116v21q0 35 -29 88l-123 209h-10v-381h-117v692h125v-43q0 -39 31 -96l182 -312l180 312q33 58 33 96v43h123v-692zM674 1264h-193v-594h-125v594h-192v98h510v-98z" />
    <glyph glyph-name="Omega" unicode="&#x2126;" horiz-adv-x="1538" 
d="M1354 760q0 -227 -78.5 -356.5t-271.5 -165.5v-113h315v-125h-455v301q79 8 136 33.5t92.5 64t56 97.5t28 123.5t7.5 152.5q0 137 -18 224t-65.5 146t-127 83t-205.5 24t-205.5 -24t-127 -83.5t-65.5 -147t-18 -226.5q0 -112 12.5 -188t46 -138.5t97 -96.5t160.5 -44
v-301h-455v125h313v113q-81 15 -141.5 48t-98.5 77.5t-61 107.5t-32 131t-9 154q0 326 134.5 471t441.5 145q312 0 453 -146.5t141 -465.5z" />
    <glyph glyph-name="partialdiff" unicode="&#x2202;" horiz-adv-x="1114" 
d="M991 983v-637q0 -67 -22.5 -130t-64 -114t-107 -81.5t-144.5 -30.5h-194q-78 0 -143.5 30.5t-106.5 81.5t-63.5 114t-22.5 130v285q0 89 37.5 167.5t116 131.5t182.5 53h194q89 0 166 -41v41q0 76 -9 127t-34.5 94t-75.5 63.5t-127 20.5h-243v146h250q208 0 309.5 -112.5
t101.5 -338.5zM825 356v338q0 76 -37 120t-112 44h-189q-96 0 -147 -68.5t-51 -175.5v-256q0 -107 51 -175t147 -68h140q96 0 147 68t51 173z" />
    <glyph glyph-name="Delta" unicode="&#x2206;" horiz-adv-x="1593" 
d="M1386 0h-1179l590 1405zM1155 145l-362 902l-361 -902h723z" />
    <glyph glyph-name="product" unicode="&#x220f;" 
d="M1085 1219h-163v-1219h-148v1219h-360v-1219h-148v1219h-166v143h985v-143z" />
    <glyph glyph-name="summation" unicode="&#x2211;" horiz-adv-x="1144" 
d="M1022 0h-899v270l512 410l-512 412v270h899v-143h-735v-72l510 -414v-104l-510 -414v-72h735v-143z" />
    <glyph glyph-name="minus" unicode="&#x2212;" 
d="M948 518h-723v152h723v-152z" />
    <glyph glyph-name="radical" unicode="&#x221a;" 
d="M1092 973l-387 -973h-173l-227 518h-182v152h297l198 -490l300 793h174z" />
    <glyph glyph-name="infinity" unicode="&#x221e;" horiz-adv-x="1187" 
d="M1065 635q0 -54 -53.5 -105t-124.5 -51h-168q-72 0 -125 66q-53 -66 -125 -66h-168q-71 0 -124.5 51t-53.5 105v125q0 55 53 105t125 50h168q73 0 125 -65q52 65 125 65h168q72 0 125 -50t53 -105v-125zM924 664v67q0 38 -26 60t-67 22h-88q-38 0 -58.5 -29.5
t-20.5 -68.5v-35q0 -40 20 -69t59 -29h88q41 0 67 21.5t26 60.5zM524 680v35q0 39 -20.5 68.5t-59.5 29.5h-88q-41 0 -66.5 -22t-25.5 -60v-67q0 -39 25.5 -60.5t66.5 -21.5h88q39 0 59.5 29t20.5 69z" />
    <glyph glyph-name="integral" unicode="&#x222b;" horiz-adv-x="950" 
d="M868 1505h-123q-71 0 -128.5 -62t-57.5 -138v-1465l-231 -260h-246v144h123q71 0 128.5 62t57.5 138v1465l232 260h245v-144z" />
    <glyph glyph-name="approxequal" unicode="&#x2248;" horiz-adv-x="1200" 
d="M1104 784l-182 -151h-150q-41 0 -80 19.5t-68.5 47.5t-57.5 56t-59 47.5t-61 19.5h-26q-49 0 -82 -33t-33 -83v-60h-151v150l182 151h149q41 0 79 -19.5t67.5 -47.5t57.5 -56t59.5 -47.5t62.5 -19.5h25q50 0 83 33t33 83v60h152v-150zM1104 377l-182 -152h-150
q-41 0 -80 19.5t-68.5 48t-57.5 56.5t-59 47.5t-61 19.5h-26q-49 0 -82 -33.5t-33 -83.5v-59h-151v149l182 152h149q41 0 79 -19.5t67.5 -48t57.5 -56.5t59.5 -47.5t62.5 -19.5h25q49 0 82.5 33.5t33.5 83.5v59h152v-149z" />
    <glyph glyph-name="notequal" unicode="&#x2260;" 
d="M948 377h-551l-104 -103h-68l105 103h-105v133h242l172 166h-414v133h549l107 102h67l-106 -102h106v-133h-243l-170 -166h413v-133z" />
    <glyph glyph-name="lessequal" unicode="&#x2264;" horiz-adv-x="927" 
d="M819 295l-717 240v172l717 239v-145l-573 -180l573 -181v-145zM825 0h-723v129h723v-129z" />
    <glyph glyph-name="greaterequal" unicode="&#x2265;" horiz-adv-x="927" 
d="M825 535l-716 -240v145l573 181l-573 180v145l716 -239v-172zM825 0h-723v129h723v-129z" />
    <glyph glyph-name="lozenge" unicode="&#x25ca;" horiz-adv-x="1114" 
d="M991 680l-434 -709l-434 709l434 709zM858 678l-301 508l-301 -508l301 -506z" />
    <glyph glyph-name="fi" unicode="&#xfb01;" horiz-adv-x="1130" 
d="M987 0h-168v850h-383v-850h-164v850h-231v123h231v170q0 35 7 70.5t26 76.5t48.5 72t79.5 51.5t114 20.5h379v-134h-359q-131 0 -131 -192v-135h551v-973z" />
    <glyph glyph-name="fl" unicode="&#xfb02;" horiz-adv-x="1130" 
d="M987 0h-168v1300h-252q-131 0 -131 -192v-135h185l-52 -123h-133v-850h-164v850h-231v123h231v170q0 35 7 70.5t26 76.5t48.5 72t79.5 51.5t114 20.5h440v-1434z" />
    <glyph glyph-name="apple" horiz-adv-x="1243" 
 />
    </font>
</defs>
</svg>
