<?xml version="1.0" standalone="no"?>
<!DOCTYPE svg PUBLIC "-//W3C//DTD SVG 1.1//EN" "http://www.w3.org/Graphics/SVG/1.1/DTD/svg11.dtd" >
<svg xmlns="http://www.w3.org/2000/svg" xmlns:xlink="http://www.w3.org/1999/xlink" version="1.1">
<metadata>
Created by FontForge 20170731 at Tue Nov 17 20:33:54 2020
 By Aleksey,,,
Copyright (c) 2007 by Jens Kajus, Playtypes, e-Types AS. All rights reserved.
</metadata>
<defs>
<font id="Agita-DemiBold" horiz-adv-x="1175" >
  <font-face 
    font-family="Agita DemiBold"
    font-weight="400"
    font-stretch="normal"
    units-per-em="2048"
    panose-1="2 0 5 6 2 0 0 2 0 4"
    ascent="1638"
    descent="-410"
    x-height="973"
    cap-height="1362"
    bbox="-223 -430 2103 1724"
    underline-thickness="40"
    underline-position="-312"
    unicode-range="U+0020-FB02"
  />
<missing-glyph horiz-adv-x="1280" 
 />
    <glyph glyph-name=".notdef" horiz-adv-x="1280" 
 />
    <glyph glyph-name=".null" horiz-adv-x="0" 
 />
    <glyph glyph-name="nonmarkingreturn" horiz-adv-x="682" 
 />
    <glyph glyph-name="space" unicode=" " horiz-adv-x="512" 
 />
    <glyph glyph-name="exclam" unicode="!" horiz-adv-x="534" 
d="M381 1362v-477l-45 -490h-137l-45 490v477h227zM381 0h-227v262h227v-262z" />
    <glyph glyph-name="quotedbl" unicode="&#x22;" horiz-adv-x="735" 
d="M623 954h-197v408h197v-408zM309 954h-196v408h196v-408z" />
    <glyph glyph-name="numbersign" unicode="#" 
d="M1167 999l-28 -155h-246l-62 -334h248l-24 -154h-248l-66 -356h-153l65 356h-225l-66 -356h-153l65 356h-266l25 154h266l59 334h-264l25 155h266l64 363h155l-65 -363h225l63 363h156l-65 -363h249zM737 844h-223l-61 -334h225z" />
    <glyph glyph-name="dollar" unicode="$" 
d="M643 -195h-104v185h-211l-215 160v210h217v-53q0 -67 53.5 -105t114.5 -38h41v459l-199 51q-101 26 -160 95t-59 161v162q0 114 83.5 197t225.5 83h109v174h104v-174h193l219 -160v-217h-219v49q0 63 -42.5 109.5t-105.5 46.5h-45v-397l184 -47q125 -32 182.5 -102
t57.5 -181v-219q0 -101 -92.5 -182.5t-233.5 -81.5h-98v-185zM717 575l-74 21v-432q80 0 136.5 32.5t56.5 102.5v139q0 106 -119 137zM350 1075v-102q0 -46 29.5 -75.5t73.5 -41.5l86 -25v369h-43q-69 0 -107.5 -32t-38.5 -93z" />
    <glyph glyph-name="percent" unicode="%" horiz-adv-x="1611" 
d="M688 1186v-326q0 -68 -52 -122t-124 -54h-188q-73 0 -127 54t-54 122v326q0 66 54 121t127 55h188q72 0 124 -54.5t52 -121.5zM1468 502v-326q0 -68 -52 -122t-124 -54h-188q-73 0 -126.5 54t-53.5 122v326q0 67 53.5 121.5t126.5 54.5h188q72 0 124 -54.5t52 -121.5z
M528 887v270q0 40 -17 64t-48 24h-94q-31 0 -48.5 -24.5t-17.5 -63.5v-270q0 -39 17.5 -63.5t48.5 -24.5h94q31 0 48 24t17 64zM1309 203v270q0 39 -17.5 63.5t-48.5 24.5h-94q-31 0 -48.5 -24.5t-17.5 -63.5v-270q0 -39 17.5 -63.5t48.5 -24.5h94q31 0 48.5 24.5t17.5 63.5
zM1272 1225l-719 -1057q-49 -70 -49 -115v-73h-166v141l721 1073q47 71 47 115v73h166v-157z" />
    <glyph glyph-name="ampersand" unicode="&#x26;" horiz-adv-x="1443" 
d="M1341 0h-151l-197 193l-192 -203h-334q-134 0 -223.5 81.5t-89.5 209.5v258q0 84 60 149t157 109q-77 74 -104 121t-27 116v105q0 100 91.5 166.5t219.5 66.5h344l213 -170v-219h-229v92q0 63 -41 95t-111 32h-119q-137 0 -137 -104v-60q0 -30 10.5 -51.5t40.5 -50.5
l465 -455l203 221h151v-139l-206 -223l206 -203v-137zM846 334l-346 334q-55 -18 -88 -60t-33 -104v-189q0 -64 41.5 -107.5t107.5 -43.5h101q23 0 45 10.5t33 20t30 28.5z" />
    <glyph glyph-name="quotesingle" unicode="'" horiz-adv-x="403" 
d="M309 954h-196v408h196v-408z" />
    <glyph glyph-name="parenleft" unicode="(" horiz-adv-x="632" 
d="M674 -420h-277l-233 262v1542l233 265h277v-170h-144q-61 0 -109 -56t-48 -123v-1372q0 -68 48 -123t109 -55h144v-170z" />
    <glyph glyph-name="parenright" unicode=")" horiz-adv-x="632" 
d="M236 -420h-277v170h143q61 0 109.5 55.5t48.5 122.5v1372q0 67 -48.5 123t-109.5 56h-143v170h277l233 -265v-1540z" />
    <glyph glyph-name="asterisk" unicode="*" horiz-adv-x="921" 
d="M815 1128l-248 -65l162 -201l-135 -96l-135 211l-137 -211l-136 96l164 201l-250 65l45 152l242 -94l-16 252h174l-17 -252l242 94z" />
    <glyph glyph-name="plus" unicode="+" 
d="M965 502h-285v-301h-186v301h-285v174h285v297h186v-297h285v-174z" />
    <glyph glyph-name="comma" unicode="," horiz-adv-x="471" 
d="M369 246l-74 -443h-172v443h246z" />
    <glyph glyph-name="hyphen" unicode="-" horiz-adv-x="886" 
d="M764 500h-641v178h641v-178z" />
    <glyph glyph-name="period" unicode="." horiz-adv-x="499" 
d="M377 0h-254v246h254v-246z" />
    <glyph glyph-name="slash" unicode="/" horiz-adv-x="866" 
d="M805 1217l-477 -949q-24 -50 -35.5 -75t-24 -63t-12.5 -64v-66h-195v131l480 963q69 132 69 200v68h195v-145z" />
    <glyph glyph-name="zero" unicode="0" 
d="M1061 993v-639q0 -160 -93 -262t-253 -102h-254q-162 0 -254 102t-92 262v639q0 71 24 136.5t68 117.5t114 83.5t154 31.5h223q112 0 196.5 -54t125.5 -137t41 -178zM834 412v526q0 111 -41.5 176.5t-118.5 65.5h-172q-78 0 -121 -65.5t-43 -176.5v-526q0 -111 43 -176.5
t121 -65.5h172q77 0 118.5 65.5t41.5 176.5z" />
    <glyph glyph-name="one" unicode="1" 
d="M147 0v186h363v920l-363 -78v193l437 120h151v-1155h361v-186h-949z" />
    <glyph glyph-name="two" unicode="2" 
d="M145 0v170q0 50 27 95t92 106l457 420q42 39 60 70t18 75v113q0 61 -39 96t-107 35h-143q-62 0 -101.5 -33t-39.5 -94v-121h-228v164q0 105 85 185.5t208 80.5h285q155 0 232 -82.5t77 -226.5v-260l-610 -572v-35h432v117h221v-303h-926z" />
    <glyph glyph-name="three" unicode="3" 
d="M1014 1341v-237l-340 -293h59q65 0 119.5 -14t101.5 -45.5t74 -90.5t27 -141v-229q0 -117 -92.5 -209t-198.5 -92h-356q-115 0 -199 74t-84 174v106h225v-68q0 -50 34.5 -78t82.5 -28h201q82 0 122.5 50t40.5 136v154q0 65 -40.5 100t-110.5 35h-272v174l366 318v28h-385
v-116h-223v292h848z" />
    <glyph glyph-name="four" unicode="4" 
d="M987 0h-223v279h-680v239l571 823h252l-583 -841v-35h440v356l110 152h113v-508h123v-186h-123v-279z" />
    <glyph glyph-name="five" unicode="5" 
d="M1051 616v-297q0 -50 -11.5 -96.5t-37.5 -89t-64 -74.5t-93.5 -50.5t-123.5 -18.5h-254q-128 0 -220.5 74.5t-92.5 191.5v109h225v-72q0 -54 42 -88.5t99 -34.5h154q71 0 112 51t41 127v211q0 178 -151 178h-150q-56 0 -97.5 -38t-55.5 -93h-205v735h823v-178h-600v-338
l119 90h225q148 0 232 -83.5t84 -215.5z" />
    <glyph glyph-name="six" unicode="6" 
d="M1051 580v-240q0 -64 -19 -123.5t-57 -111.5t-103.5 -83.5t-150.5 -31.5h-244q-142 0 -238 97t-96 239v647q0 81 20.5 150t61.5 123.5t109.5 85t157.5 30.5h247q122 0 207.5 -80t85.5 -182v-62h-221v39q0 39 -40 71t-101 32h-142q-88 0 -123.5 -52.5t-35.5 -144.5v-195
l108 82h254q140 0 230 -84.5t90 -205.5zM825 346v174q0 176 -149 176h-166q-65 0 -103 -48t-38 -132v-184q0 -77 47.5 -119.5t111.5 -42.5h146q71 0 111 50.5t40 125.5z" />
    <glyph glyph-name="seven" unicode="7" 
d="M127 1044v297h930v-292l-492 -889v-160h-243v190l499 883v84h-473v-113h-221z" />
    <glyph glyph-name="eight" unicode="8" 
d="M1061 494v-211q0 -117 -97 -205t-235 -88h-285q-137 0 -233 87.5t-96 205.5v211q0 72 54 134.5t130 86.5q-73 21 -115.5 83t-42.5 130v162q0 113 96 192.5t236 79.5h229q139 0 234.5 -79.5t95.5 -192.5v-162q0 -67 -43.5 -128.5t-116.5 -82.5q76 -26 132.5 -89.5
t56.5 -133.5zM834 305v154q0 42 -16.5 72.5t-45 47t-59 24t-64.5 7.5h-123q-77 0 -131.5 -36t-54.5 -115v-154q0 -59 51 -97t107 -38h178q56 0 107 38t51 97zM809 926v116q0 63 -39 100.5t-106 37.5h-152q-68 0 -106.5 -37t-38.5 -101v-116q0 -66 46 -105t105 -39h115
q74 0 125 34.5t51 109.5z" />
    <glyph glyph-name="nine" unicode="9" horiz-adv-x="1173" 
d="M123 770v242q0 65 19.5 125t57.5 111.5t103.5 82.5t149.5 31h243q141 0 237.5 -97.5t96.5 -240.5v-635q0 -82 -20 -152t-60.5 -126.5t-109 -88.5t-158.5 -32h-248q-123 0 -208 75.5t-85 176.5v51h221v-29q0 -44 38.5 -69t103.5 -25h141q160 0 160 207v186l-109 -82h-260
q-139 0 -226 83.5t-87 205.5zM348 1006v-175q0 -82 37.5 -130t112.5 -48h166q63 0 102 52t39 131v184q0 76 -48.5 118t-113.5 42h-143q-72 0 -112 -49.5t-40 -124.5z" />
    <glyph glyph-name="colon" unicode=":" horiz-adv-x="499" 
d="M377 725h-254v248h254v-248zM377 0h-254v246h254v-246z" />
    <glyph glyph-name="semicolon" unicode=";" horiz-adv-x="454" 
d="M377 735h-254v238h254v-238zM369 246l-74 -443h-172v443h246z" />
    <glyph glyph-name="less" unicode="&#x3c;" 
d="M958 156l-741 338v182l741 338v-203l-540 -227l540 -226v-202z" />
    <glyph glyph-name="equal" unicode="=" 
d="M961 659h-748v160h748v-160zM961 358h-748v160h748v-160z" />
    <glyph glyph-name="greater" unicode="&#x3e;" 
d="M956 487l-739 -337v204l539 226l-539 225v205l739 -338v-185z" />
    <glyph glyph-name="question" unicode="?" horiz-adv-x="1193" 
d="M1061 805l-377 -227v-183h-229v260l315 191q61 38 61 112v101q0 131 -124 131h-207q-75 0 -107.5 -27.5t-32.5 -93.5v-74h-227v113q0 119 82 191.5t223 72.5h287q170 0 253 -80.5t83 -214.5v-272zM684 0h-229v262h229v-262z" />
    <glyph glyph-name="at" unicode="@" horiz-adv-x="1755" 
d="M1622 969v-502q0 -105 -71.5 -188.5t-161.5 -83.5h-207l-78 102l-113 -102h-227q-87 0 -156 65t-69 152v305q0 104 67 172.5t172 68.5h205l68 -67l20 59h146v-608h139q30 0 47.5 36.5t17.5 84.5v461q0 286 -254 286h-561q-134 0 -203 -83.5t-69 -223.5v-684
q0 -132 72 -202t200 -70h715v-152h-737q-69 0 -133.5 14t-122.5 45t-101 75.5t-68.5 110t-25.5 144.5v764q0 118 64 215t161.5 148t204.5 51h621q188 0 313 -106.5t125 -286.5zM1028 502v196q0 52 -23 85.5t-61 33.5h-119q-41 0 -66.5 -32t-25.5 -78v-271q0 -44 29 -70
t61 -26h88q48 0 82.5 51t34.5 111z" />
    <glyph glyph-name="A" unicode="A" horiz-adv-x="1284" 
d="M1223 0h-238v70q0 105 -53 233l-35 86h-512l-33 -86q-55 -142 -55 -233v-70h-236v162l459 1167v33h246v-33l457 -1171v-158zM827 578l-176 497h-18l-180 -497h374z" />
    <glyph glyph-name="B" unicode="B" horiz-adv-x="1259" 
d="M1157 485v-168q0 -127 -104 -222t-236 -95h-653v1362h565q162 0 260 -83t98 -208v-129q0 -66 -36.5 -123t-92.5 -84v-10q36 -11 69 -30t63.5 -47.5t48.5 -70.5t18 -92zM922 340v127q0 59 -46.5 100t-130.5 41h-350v-424h359q65 0 116.5 43t51.5 113zM860 950v94
q0 62 -40.5 98t-114.5 36h-310v-392h307q71 0 114.5 48.5t43.5 115.5z" />
    <glyph glyph-name="C" unicode="C" horiz-adv-x="1257" 
d="M1174 174l-248 -184h-355q-138 0 -242 62t-155 160t-51 216v504q0 119 51 217.5t155 160.5t242 62h355l248 -184v-195h-234v51q0 61 -45 102.5t-109 41.5h-190q-112 0 -176 -79t-64 -194v-469q0 -116 64 -194t176 -78h190q65 0 109.5 40.5t44.5 102.5v50h234v-193z" />
    <glyph glyph-name="D" unicode="D" horiz-adv-x="1353" 
d="M1231 889v-418q0 -202 -125 -336.5t-332 -134.5h-610v1362h610q207 0 332 -135t125 -338zM999 479v402q0 137 -61 216t-190 79h-353v-990h353q129 0 190 79t61 214z" />
    <glyph glyph-name="E" unicode="E" horiz-adv-x="1167" 
d="M1102 0h-938v1362h921v-186h-690v-388h563v-186h-563v-416h707v-186z" />
    <glyph glyph-name="F" unicode="F" horiz-adv-x="1126" 
d="M1065 1176h-670v-388h563v-186h-563v-602h-231v1362h901v-186z" />
    <glyph glyph-name="G" unicode="G" horiz-adv-x="1335" 
d="M1026 0l-22 113l-154 -123h-289q-105 0 -190 35.5t-138 97t-81.5 139.5t-28.5 166v504q0 88 31 167t88 140t144 97t192 36h387l247 -184v-195h-233v51q0 61 -45 102.5t-109 41.5h-227q-112 0 -177 -79.5t-65 -193.5v-469q0 -118 56 -195t166 -77h196q79 0 142 49.5
t63 116.5v186h-254v189h487v-715h-186z" />
    <glyph glyph-name="H" unicode="H" horiz-adv-x="1378" 
d="M1214 0h-231v588h-588v-588h-231v1362h231v-586h588v586h231v-1362z" />
    <glyph glyph-name="I" unicode="I" horiz-adv-x="591" 
d="M412 0h-232v1362h232v-1362z" />
    <glyph glyph-name="J" unicode="J" horiz-adv-x="903" 
d="M739 236l-262 -236h-416v184h232q77 0 145 69t68 150v959h233v-1126z" />
    <glyph glyph-name="K" unicode="K" horiz-adv-x="1249" 
d="M1167 0h-237v74q0 48 -7.5 74t-31.5 59l-309 426l-187 -197v-436h-231v1362h231v-619h19l424 453q27 28 48 68t21 63v35h236v-129l-406 -434l430 -598v-201z" />
    <glyph glyph-name="L" unicode="L" horiz-adv-x="1075" 
d="M1044 0h-880v1362h231v-1176h649v-186z" />
    <glyph glyph-name="M" unicode="M" horiz-adv-x="1667" 
d="M1503 0h-215v827h-22l-269 -479q-55 -95 -55 -188v-39h-217v39q0 89 -55 188l-269 479h-22v-827h-215v1362h237v-53q0 -91 52 -187l366 -665h27l368 665q52 96 52 187v53h237v-1362z" />
    <glyph glyph-name="N" unicode="N" horiz-adv-x="1378" 
d="M1214 0h-233v47q0 59 -17 100t-59 95l-508 649h-20v-891h-213v1362h231v-49q0 -59 18 -100t60 -93l506 -645h22v887h213v-1362z" />
    <glyph glyph-name="O" unicode="O" horiz-adv-x="1374" 
d="M1251 942v-524q0 -179 -127.5 -303.5t-332.5 -124.5h-205q-205 0 -334 125t-129 303v524q0 87 33.5 165.5t92.5 137t146.5 93t190.5 34.5h205q205 0 332.5 -125t127.5 -305zM1016 446v469q0 114 -65 193.5t-177 79.5h-176q-112 0 -177 -79.5t-65 -193.5v-469
q0 -115 64.5 -193.5t177.5 -78.5h176q113 0 177.5 78.5t64.5 193.5z" />
    <glyph glyph-name="P" unicode="P" horiz-adv-x="1200" 
d="M1118 1014v-176q0 -97 -57.5 -179.5t-144 -127t-177.5 -44.5h-342v-487h-233v1362h553q107 0 197.5 -40.5t147 -121t56.5 -186.5zM883 854v147q0 86 -52.5 131.5t-148.5 45.5h-285v-508h312q70 0 122 52.5t52 131.5z" />
    <glyph glyph-name="Q" unicode="Q" horiz-adv-x="1372" 
d="M1249 223l-248 -205l256 -292h-280l-236 264h-157q-139 0 -245.5 60.5t-161 159.5t-54.5 218v504q0 118 54.5 217t161 161t245.5 62h207q138 0 244 -62t160 -161t54 -217v-709zM1016 305v610q0 115 -64 194t-176 79h-178q-112 0 -177 -79.5t-65 -193.5v-469
q0 -112 66 -192t176 -80h262z" />
    <glyph glyph-name="R" unicode="R" horiz-adv-x="1249" 
d="M1167 0h-237v63q0 52 -8 81t-33 65l-256 350h-238v-559h-231v1362h557q180 0 288.5 -90t108.5 -232v-163q0 -91 -71.5 -167.5t-169.5 -107.5l290 -401v-201zM883 903v123q0 150 -205 150h-283v-433h322q65 0 115.5 46.5t50.5 113.5z" />
    <glyph glyph-name="S" unicode="S" 
d="M1073 469v-205q0 -102 -92.5 -188t-232.5 -86h-431l-215 160v200h217v-47q0 -67 52.5 -103t115.5 -36h183q70 0 120 39t50 106v135q0 54 -31 90t-88 48l-389 80q-105 22 -163 92.5t-58 177.5v158q0 117 83 199.5t226 82.5h422l219 -164v-204h-219v43q0 65 -41.5 109
t-106.5 44h-207q-67 0 -106 -31.5t-39 -93.5v-112q0 -47 30.5 -79t73.5 -42l388 -80q126 -26 182.5 -98.5t56.5 -194.5z" />
    <glyph glyph-name="T" unicode="T" horiz-adv-x="1085" 
d="M1044 1176h-385v-1176h-233v1176h-385v186h1003v-186z" />
    <glyph glyph-name="U" unicode="U" horiz-adv-x="1378" 
d="M1214 1362v-963q0 -167 -116.5 -288t-296.5 -121h-226q-119 0 -214 57t-146 150t-51 202v963h231v-959q0 -94 58.5 -161.5t142.5 -67.5h184q84 0 143.5 67.5t59.5 161.5v959h231z" />
    <glyph glyph-name="V" unicode="V" horiz-adv-x="1284" 
d="M1223 1192l-467 -1153v-39h-228v39l-467 1149v174h234v-68q0 -91 51 -221l283 -741h26l281 741q51 130 51 221v68h236v-170z" />
    <glyph glyph-name="W" unicode="W" horiz-adv-x="1851" 
d="M1769 1214l-362 -1175v-39h-225v39l-252 827h-6l-254 -825v-41h-226v39l-362 1175v148h231v-68q0 -124 49 -286l197 -668h19l174 569q59 187 59 314v139h227v-139q0 -114 62 -314l174 -569h16l197 670q51 173 51 284v68h231v-148z" />
    <glyph glyph-name="X" unicode="X" horiz-adv-x="1224" 
d="M1153 0h-238v70q0 31 -12 62t-24 49.5t-35 47.5l-221 287h-21l-221 -287q-37 -45 -55.5 -80t-18.5 -71v-78h-235v174l389 508v25l-371 481v174h238v-72q0 -40 16 -71t59 -89l199 -253h21l198 253q44 57 60 87.5t16 70.5v74h236v-170l-367 -487v-25l387 -510v-170z" />
    <glyph glyph-name="Y" unicode="Y" horiz-adv-x="1183" 
d="M1133 1194l-424 -729v-465h-232v465l-426 725v172h236v-78q0 -56 57 -164l236 -428h26l236 428q32 58 43.5 90t11.5 74v78h236v-168z" />
    <glyph glyph-name="Z" unicode="Z" horiz-adv-x="1189" 
d="M1090 0h-990v295l721 823v58h-710v186h950v-297l-721 -823v-56h750v-186z" />
    <glyph glyph-name="bracketleft" unicode="[" horiz-adv-x="557" 
d="M578 -420h-414v2067h414v-168h-205v-1729h205v-170z" />
    <glyph glyph-name="backslash" unicode="\" horiz-adv-x="884" 
d="M541 268l-478 949v145h197v-68q0 -66 70 -200l479 -963v-131h-197v66q0 56 -71 202z" />
    <glyph glyph-name="bracketright" unicode="]" horiz-adv-x="557" 
d="M393 -420h-413v170h202v1729h-202v168h413v-2067z" />
    <glyph glyph-name="asciicircum" unicode="^" horiz-adv-x="765" 
d="M10 817l283 545h182l283 -545h-203l-172 354l-170 -354h-203z" />
    <glyph glyph-name="underscore" unicode="_" horiz-adv-x="1153" 
d="M1065 -190h-952v159h952v-159z" />
    <glyph glyph-name="grave" unicode="`" horiz-adv-x="505" 
d="M406 1085h-173l-225 215h252z" />
    <glyph glyph-name="a" unicode="a" horiz-adv-x="1089" 
d="M1008 0h-156l-82 100l-139 -110h-258q-119 0 -200 74.5t-81 187.5v102q0 101 77.5 167.5t188.5 66.5h361v119q0 116 -105 116h-165q-36 0 -62.5 -12.5t-30.5 -38.5l-4 -31h-211v138l172 104h344q121 0 201 -71t80 -187v-510l70 -88v-127zM719 340v98h-293
q-42 0 -76.5 -27t-34.5 -77v-62q0 -59 35.5 -93t93.5 -34h97q71 0 124.5 56t53.5 139z" />
    <glyph glyph-name="b" unicode="b" horiz-adv-x="1148" 
d="M1038 635v-305q0 -83 -35 -159.5t-107 -128.5t-165 -52h-182q-57 0 -118.5 36.5t-82.5 79.5l-10 -106h-195v1434h224v-566q65 115 200 115h160q146 0 228.5 -94.5t82.5 -253.5zM813 342v270q0 101 -37 154t-104 53h-125q-81 0 -133 -57.5t-52 -143.5v-294q0 -66 59 -118
t120 -52h114q71 0 114.5 55.5t43.5 132.5z" />
    <glyph glyph-name="c" unicode="c" horiz-adv-x="1058" 
d="M967 143l-199 -153h-297q-151 0 -255.5 98t-104.5 225v346q0 128 100 226t250 98h307l199 -154v-153h-224v22q0 54 -39.5 88.5t-95.5 34.5h-102q-77 0 -122.5 -57t-45.5 -137v-283q0 -79 46 -136.5t122 -57.5h102q56 0 95.5 35t39.5 89v23h224v-154z" />
    <glyph glyph-name="d" unicode="d" horiz-adv-x="1148" 
d="M1006 0h-224v88l-137 -98h-233q-136 0 -218.5 97t-82.5 243v297q0 150 91.5 253t233.5 103h232l114 -78v529h224v-1434zM786 342v293q0 77 -47 130.5t-118 53.5h-123q-74 0 -118 -58t-44 -147v-252q0 -98 40 -154t109 -56h121q71 0 125.5 59t54.5 131z" />
    <glyph glyph-name="e" unicode="e" horiz-adv-x="1077" 
d="M967 649v-207h-631v-98q0 -77 47 -137t119 -60h106q66 0 103 31.5t37 87.5v15h219v-144l-193 -147h-305q-151 0 -254.5 98t-103.5 225v316q0 90 38.5 169.5t118 132t183.5 52.5h217q124 0 211.5 -100.5t87.5 -233.5zM750 592q0 114 -31 172.5t-111 58.5h-129
q-143 0 -143 -231h414z" />
    <glyph glyph-name="f" unicode="f" horiz-adv-x="735" 
d="M715 1262h-148q-114 0 -114 -148v-141h247v-162h-247v-811h-224v811h-219v162h219v162q0 35 7.5 72t28 79t52 74t86 53t123.5 21h189v-172z" />
    <glyph glyph-name="g" unicode="g" horiz-adv-x="1110" 
d="M958 725v-117q0 -49 -17 -93.5t-52.5 -83t-98.5 -61t-147 -22.5h-217l-59 -49q-15 -12 -15 -33v-37q0 -12 9 -21t24 -9h363q135 0 214.5 -59.5t79.5 -174.5v-155q0 -103 -88.5 -171.5t-228.5 -68.5h-471l-172 151v222h215v-115q0 -52 31.5 -78t81.5 -26h295q58 0 89 29
t31 85v96q0 101 -114 101h-371q-85 0 -139 38t-54 109v137l95 76q-54 29 -87.5 85.5t-33.5 127.5v117q0 113 76 185.5t237 72.5h203q130 0 209 -53l63 53h181v-188h-142q10 -29 10 -70zM743 621v77q0 61 -30 94t-109 33h-127q-139 0 -139 -112v-76q0 -63 29 -98t110 -35h127
q139 0 139 117z" />
    <glyph glyph-name="h" unicode="h" horiz-adv-x="1134" 
d="M991 637v-637h-223v662q0 77 -32.5 117t-90.5 40h-84q-72 0 -133 -61.5t-61 -139.5v-618h-224v1434h224v-560l127 109h221q69 0 119.5 -19.5t80 -50t47 -77.5t23.5 -93.5t6 -105.5z" />
    <glyph glyph-name="i" unicode="i" horiz-adv-x="534" 
d="M379 1165h-223v197h223v-197zM379 0h-223v973h223v-973z" />
    <glyph glyph-name="j" unicode="j" horiz-adv-x="509" 
d="M367 1165h-226v197h226v-197zM367 -229l-222 -191h-254v180h101q68 0 108.5 43.5t40.5 118.5v1051h226v-1202z" />
    <glyph glyph-name="k" unicode="k" horiz-adv-x="1050" 
d="M999 0h-223v41q0 51 -12 86t-43 72l-217 264l-137 -131v-332h-224v1434h224v-854l319 313q34 29 37 80h229v-96l-297 -277l344 -428v-172z" />
    <glyph glyph-name="l" unicode="l" horiz-adv-x="534" 
d="M379 0h-223v1434h223v-1434z" />
    <glyph glyph-name="m" unicode="m" horiz-adv-x="1609" 
d="M1466 664v-664h-223v666q0 153 -96 153h-72q-59 0 -112.5 -64t-53.5 -147v-608h-211v666q0 153 -102 153h-72q-57 0 -107 -63.5t-50 -147.5v-608h-224v973h174l11 -107h16l115 117h194q83 0 131.5 -29t75.5 -88h17l112 117h213q67 0 116 -17t77 -43.5t44.5 -70
t21.5 -86.5t5 -102z" />
    <glyph glyph-name="n" unicode="n" horiz-adv-x="1134" 
d="M991 637v-637h-223v662q0 78 -32.5 117.5t-90.5 39.5h-84q-73 0 -133.5 -62.5t-60.5 -142.5v-614h-224v973h174l13 -107h18l135 117h232q69 0 119.5 -19.5t80 -50t47 -77.5t23.5 -93.5t6 -105.5z" />
    <glyph glyph-name="o" unicode="o" horiz-adv-x="1116" 
d="M1006 631v-289q0 -143 -94.5 -247.5t-252.5 -104.5h-204q-105 0 -185 51t-119.5 130t-39.5 171v289q0 91 39.5 170t119.5 130.5t185 51.5h204q106 0 187 -51.5t120.5 -130.5t39.5 -170zM782 356v258q0 90 -44 147.5t-122 57.5h-116q-78 0 -122 -57.5t-44 -147.5v-258
q0 -90 44 -146t122 -56h116q78 0 122 56t44 146z" />
    <glyph glyph-name="p" unicode="p" horiz-adv-x="1148" 
d="M1038 635v-303q0 -84 -35 -161t-107 -129t-165 -52h-172q-58 0 -114.5 31.5t-77.5 72.5v-516h-224v1395h174l33 -105q32 54 90.5 84.5t126.5 30.5h160q146 0 228.5 -94.5t82.5 -253.5zM813 344v268q0 101 -37 154t-104 53h-125q-81 0 -133 -57.5t-52 -143.5v-292
q0 -71 58.5 -121.5t120.5 -50.5h114q71 0 114.5 56.5t43.5 133.5z" />
    <glyph glyph-name="q" unicode="q" horiz-adv-x="1148" 
d="M782 -428v516l-137 -98h-233q-136 0 -218.5 97t-82.5 243v297q0 150 91.5 253t233.5 103h232l118 -80l21 70h199v-1309zM786 344v291q0 77 -47 130.5t-118 53.5h-123q-74 0 -118 -58t-44 -147v-249q0 -99 40 -156t109 -57h121q71 0 125.5 59.5t54.5 132.5z" />
    <glyph glyph-name="r" unicode="r" horiz-adv-x="720" 
d="M690 756h-166q-76 0 -116.5 -58t-40.5 -163v-535h-224v973h172l43 -133l162 143h170v-227z" />
    <glyph glyph-name="s" unicode="s" horiz-adv-x="1026" 
d="M924 326v-109q0 -82 -74.5 -154.5t-183.5 -72.5h-394l-170 149v146h209l6 -39q17 -105 125 -105h140q55 0 87.5 23t32.5 65v58q0 43 -25.5 67t-90.5 39l-250 58q-225 52 -225 217v92q0 101 74 162t188 61h362l170 -152v-141h-209l-6 39q-16 100 -125 100h-139
q-46 0 -74 -21.5t-28 -64.5v-47q0 -29 26.5 -49.5t69.5 -30.5l291 -69q114 -28 163.5 -79.5t49.5 -141.5z" />
    <glyph glyph-name="t" unicode="t" horiz-adv-x="757" 
d="M717 0h-219q-136 0 -205.5 76.5t-69.5 206.5v528h-203v162h203v272l223 45v-317h271v-162h-271v-496q0 -80 29.5 -111.5t89.5 -31.5h152v-172z" />
    <glyph glyph-name="u" unicode="u" horiz-adv-x="1134" 
d="M143 336v637h224v-656q0 -159 122 -159h95q73 0 128.5 58.5t55.5 139.5v617h223v-973h-174l-12 106h-19l-145 -116h-221q-69 0 -119.5 19.5t-80 50t-47.5 77.5t-24 93.5t-6 105.5z" />
    <glyph glyph-name="v" unicode="v" horiz-adv-x="1054" 
d="M973 842l-340 -817v-25h-213v25l-338 815v133h223v-41q0 -97 57 -242l154 -397h23l153 397q56 144 56 242v41h225v-131z" />
    <glyph glyph-name="w" unicode="w" horiz-adv-x="1513" 
d="M1432 848l-291 -823v-25h-213v25l-164 565h-8l-168 -565v-25h-213v25l-293 821v127h223v-41q0 -100 45 -240l125 -403h23l116 413q37 133 37 222v49h211v-49q0 -97 37 -222l117 -413h24l123 401q45 149 45 242v41h224v-125z" />
    <glyph glyph-name="x" unicode="x" horiz-adv-x="997" 
d="M922 0h-224v53q0 23 -14 56t-33 57l-141 174h-14l-150 -176q-18 -21 -31.5 -51.5t-13.5 -53.5v-59h-225v131l297 344v19l-289 344v135h225v-55q0 -51 47 -111l136 -166h12l135 166q45 55 45 111v55h223v-137l-278 -326v-16l293 -363v-131z" />
    <glyph glyph-name="y" unicode="y" horiz-adv-x="1064" 
d="M983 844l-477 -1127l-176 -147h-289v180h156q53 0 90.5 31t72.5 106l70 154l-338 805v127h225v-41q0 -73 58 -223l153 -398h21l160 410q51 124 51 211v41h223v-129z" />
    <glyph glyph-name="z" unicode="z" horiz-adv-x="964" 
d="M883 0h-793v207l510 571v31h-518v164h774v-209l-512 -571v-29h539v-164z" />
    <glyph glyph-name="braceleft" unicode="{" horiz-adv-x="784" 
d="M825 -420h-276l-234 262v559q0 66 -31 96.5t-94 30.5h-67v166h67q64 0 94.5 31.5t30.5 101.5v557l234 265h276v-170h-145q-61 0 -108.5 -56t-47.5 -123v-444q0 -68 -21 -135t-61 -109q40 -42 61 -108.5t21 -134.5v-441q0 -68 47.5 -123t108.5 -55h145v-170z" />
    <glyph glyph-name="bar" unicode="|" horiz-adv-x="563" 
d="M358 -123h-153v1639h153v-1639z" />
    <glyph glyph-name="braceright" unicode="}" horiz-adv-x="784" 
d="M236 -420h-277v170h143q61 0 108.5 55.5t47.5 122.5v441q0 68 21 134.5t61 108.5q-40 42 -61 109t-21 135v444q0 67 -47.5 123t-108.5 56h-143v170h277q38 -44 115.5 -132.5t115.5 -132.5v-557q0 -74 35.5 -103.5t111.5 -29.5h48v-166h-48q-74 0 -109.5 -28.5
t-35.5 -100.5v-555z" />
    <glyph glyph-name="asciitilde" unicode="~" horiz-adv-x="1284" 
d="M1141 584l-189 -158h-166q-43 0 -83 19t-70.5 46.5t-58.5 55t-58 46.5t-57 19h-27q-39 0 -65.5 -29.5t-26.5 -72.5v-70h-197v170l189 158h164q43 0 83 -19t70.5 -46.5t59 -55t58.5 -46.5t58 -19h25q40 0 67 29.5t27 72.5v70h197v-170z" />
    <glyph glyph-name="exclamdown" unicode="&#xa1;" horiz-adv-x="534" 
d="M381 477v-477h-227v477l45 490h137zM154 1362h227v-262h-227v262z" />
    <glyph glyph-name="cent" unicode="&#xa2;" 
d="M559 0v195h-27q-151 0 -255.5 98t-104.5 225v346q0 128 100 226t250 98h37v174h105v-174h165l199 -154v-153h-223v22q0 54 -40.5 88.5t-100.5 34.5v-672q59 0 100 35t41 90v23h223v-154l-199 -153h-165v-195h-105zM399 549q0 -78 43.5 -135t116.5 -60v672
q-73 -3 -116.5 -60t-43.5 -135v-282z" />
    <glyph glyph-name="sterling" unicode="&#xa3;" 
d="M100 565v176h125v355q0 111 82 193.5t221 82.5h324l211 -158v-206h-229v59q0 59 -34 95t-89 36h-115q-61 0 -100 -30.5t-39 -90.5v-336h307v-176h-307v-383h327q59 0 106.5 35.5t47.5 101.5v58h229v-211l-223 -166h-911v182h192v383h-125z" />
    <glyph glyph-name="currency" unicode="&#xa4;" horiz-adv-x="1204" 
d="M1079 233l-43 -43l-164 166q-119 -98 -270 -98t-270 98l-164 -166l-43 43l164 164q-109 127 -109 285q0 150 96 272l-151 154l43 43l151 -152q128 109 283 109t283 -109l151 152l43 -43l-151 -154q96 -126 96 -272q0 -154 -109 -285zM874 682q0 114 -80 196.5t-192 82.5
q-113 0 -192.5 -82t-79.5 -197q0 -113 79.5 -194.5t192.5 -81.5q112 0 192 81.5t80 194.5z" />
    <glyph glyph-name="yen" unicode="&#xa5;" horiz-adv-x="1196" 
d="M961 250h-246v-250h-232v250h-252v100h252v111h-252v100h205l-368 629v172h235v-78q0 -70 55 -168l228 -414h26l230 412q30 56 40.5 91t10.5 79v78h235v-168q-61 -106 -183 -317t-183 -316h199v-100h-246v-111h246v-100z" />
    <glyph glyph-name="brokenbar" unicode="&#xa6;" horiz-adv-x="526" 
d="M342 799h-158v717h158v-717zM342 -123h-158v737h158v-737z" />
    <glyph glyph-name="section" unicode="&#xa7;" 
d="M1075 526v-184q0 -34 -11.5 -63.5t-37 -56t-44 -41.5t-52.5 -40q43 -49 43 -127v-217q0 -82 -74.5 -154.5t-183.5 -72.5h-350l-170 149v146h215v-39q0 -54 35.5 -79.5t89.5 -25.5h106q54 0 82.5 23t28.5 66v145q0 45 -31 73t-117 62l-276 111q-109 43 -167.5 96.5
t-58.5 136.5v199q0 69 38.5 116.5t107.5 86.5q-39 48 -39 116v195q0 101 74 162t188 61h330l170 -151v-142h-209l-6 39q-16 101 -125 101h-107q-46 0 -74 -22t-28 -65v-139q0 -34 18.5 -55t77.5 -45l344 -137q115 -46 164 -94t49 -134zM760 244l22 -11q72 49 72 121v127
q0 22 -6 36.5t-24 27.5t-33.5 20t-53.5 23l-356 149q-66 -50 -66 -121v-135q0 -29 27.5 -54.5t69.5 -41.5z" />
    <glyph glyph-name="dieresis" unicode="&#xa8;" horiz-adv-x="763" 
d="M637 1085h-184v181h184v-181zM311 1085h-184v181h184v-181z" />
    <glyph glyph-name="copyright" unicode="&#xa9;" horiz-adv-x="1708" 
d="M1544 453q0 -212 -132 -332.5t-335 -120.5h-446q-203 0 -335 120.5t-132 332.5v456q0 212 132 332.5t335 120.5h446q203 0 335 -120.5t132 -332.5v-456zM1358 436v490q0 48 -17.5 97.5t-49.5 91.5t-82 68.5t-109 26.5h-494q-58 0 -108 -26.5t-81.5 -68.5t-49 -91.5
t-17.5 -97.5v-490q0 -48 17.5 -97.5t49 -91.5t81.5 -68.5t108 -26.5h494q59 0 109 26.5t82 68.5t49.5 91.5t17.5 97.5zM1180 440l-146 -121h-295q-94 0 -147 65.5t-53 147.5v277q0 77 56 151t153 74h286l146 -121v-118h-162v30q0 37 -20.5 57.5t-57.5 20.5h-158
q-36 0 -58 -34t-22 -74v-240q0 -38 22 -71t58 -33h158q37 0 57.5 20t20.5 57v31h162v-119z" />
    <glyph glyph-name="ordfeminine" unicode="&#xaa;" horiz-adv-x="819" 
d="M696 760h-123l-38 49l-70 -55h-158q-79 0 -131.5 46.5t-52.5 117.5v69q0 65 50.5 104t125.5 39h188v56q0 57 -49 57h-82q-24 0 -33.5 -11t-11.5 -38h-157v98l112 70h217q78 0 126 -45.5t48 -120.5v-295l39 -51v-90zM487 971v53h-147q-20 0 -34.5 -13t-14.5 -36v-45
q0 -27 16.5 -43.5t40.5 -16.5h55q34 0 59 29.5t25 71.5z" />
    <glyph glyph-name="guillemotleft" unicode="&#xab;" horiz-adv-x="1034" 
d="M932 176h-203l-223 361l223 358h203l-223 -358zM526 176h-200l-224 361l224 358h200l-223 -358z" />
    <glyph glyph-name="logicalnot" unicode="&#xac;" 
d="M958 676v-436h-198v262h-557v174h755z" />
    <glyph glyph-name="registered" unicode="&#xae;" horiz-adv-x="1708" 
d="M1544 453q0 -141 -62.5 -245t-167.5 -156t-237 -52h-446q-204 0 -335.5 121t-131.5 332v456q0 212 131 332.5t336 120.5h446q203 0 335 -120.5t132 -332.5v-456zM1358 438v488q0 48 -17.5 97.5t-49.5 91.5t-82 68.5t-109 26.5h-494q-58 0 -108 -26.5t-81.5 -68.5
t-49 -91.5t-17.5 -97.5v-488q0 -49 17.5 -98.5t49 -91t81.5 -68t108 -26.5h494q78 0 138.5 45t90 109t29.5 130zM1167 322h-163v61q0 54 -37 100l-76 88h-168v-249h-158v712h396q95 0 150.5 -52.5t55.5 -125.5v-131l-118 -111l118 -153v-139zM1004 768v68q0 32 -22.5 50.5
t-57.5 18.5h-201v-215h207q27 0 50.5 25.5t23.5 52.5z" />
    <glyph glyph-name="macron" unicode="&#xaf;" horiz-adv-x="733" 
d="M610 1085h-487v125h487v-125z" />
    <glyph glyph-name="degree" unicode="&#xb0;" horiz-adv-x="804" 
d="M682 1188q0 -114 -82.5 -193.5t-196.5 -79.5q-115 0 -197.5 79t-82.5 192q0 116 82 194t198 78q114 0 196.5 -78t82.5 -192zM543 1186q0 58 -41.5 99.5t-98.5 41.5q-58 0 -98.5 -41t-40.5 -100q0 -57 40.5 -98t98.5 -41q57 0 98.5 41t41.5 98z" />
    <glyph glyph-name="plusminus" unicode="&#xb1;" horiz-adv-x="1050" 
d="M903 518h-285v-272h-186v272h-285v174h285v291h186v-291h285v-174zM903 0h-756v158h756v-158z" />
    <glyph glyph-name="twosuperior" unicode="&#xb2;" horiz-adv-x="774" 
d="M133 680v102q0 57 62 111l239 203q33 26 33 59v45q0 47 -51 47h-84q-22 0 -37.5 -16t-15.5 -39v-66h-156v76q0 65 49.5 112.5t118.5 47.5h168q83 0 127.5 -46.5t44.5 -121.5v-115l-324 -282h209v57h135v-174h-518z" />
    <glyph glyph-name="threesuperior" unicode="&#xb3;" horiz-adv-x="757" 
d="M272 1184h-133v178h475v-139l-143 -127q164 0 164 -156v-94q0 -63 -49 -114.5t-105 -51.5h-205q-63 0 -108 41.5t-45 97.5v74h158v-55q0 -20 14 -31.5t37 -11.5h78q65 0 65 77v68q0 51 -67 51h-99v109l164 145h-201v-61z" />
    <glyph glyph-name="acute" unicode="&#xb4;" horiz-adv-x="505" 
d="M236 1085h-173l146 215h252z" />
    <glyph glyph-name="mu" unicode="&#xb5;" horiz-adv-x="1128" 
d="M133 -410v1383h223v-666q0 -72 35 -110.5t92 -38.5h92q73 0 130 59.5t57 140.5v615h223v-764l68 -80v-129h-146l-96 104q-126 -95 -152 -114h-200q-57 0 -103 37v-437h-223z" />
    <glyph glyph-name="mu" unicode="&#x3bc;" horiz-adv-x="1128" 
d="M133 -410v1383h223v-666q0 -72 35 -110.5t92 -38.5h92q73 0 130 59.5t57 140.5v615h223v-764l68 -80v-129h-146l-96 104q-126 -95 -152 -114h-200q-57 0 -103 37v-437h-223z" />
    <glyph glyph-name="paragraph" unicode="&#xb6;" horiz-adv-x="1077" 
d="M870 -420h-161v1716h-103v-1716h-162v1419l-71 -79h-170v442h667v-1782z" />
    <glyph glyph-name="periodcentered" unicode="&#xb7;" horiz-adv-x="505" 
d="M377 475h-254v246h254v-246z" />
    <glyph glyph-name="cedilla" unicode="&#xb8;" horiz-adv-x="692" 
d="M569 -180v-99q0 -53 -45 -92t-112 -39h-152q-60 0 -98.5 44t-38.5 92v38h119v-16q0 -31 18 -50.5t53 -19.5h64q35 0 53.5 18.5t18.5 49.5v43q0 28 -19.5 43.5t-54.5 15.5h-189l31 156h143l-16 -72h74q66 0 108.5 -31.5t42.5 -80.5z" />
    <glyph glyph-name="onesuperior" unicode="&#xb9;" horiz-adv-x="718" 
d="M123 684v119h168v411l-168 -40v122l213 66h106v-559h154v-119h-473z" />
    <glyph glyph-name="ordmasculine" unicode="&#xba;" horiz-adv-x="808" 
d="M686 1143v-170q0 -88 -61 -153.5t-162 -65.5h-121q-98 0 -158.5 65.5t-60.5 153.5v170q0 87 60.5 153t158.5 66h121q101 0 162 -66t61 -153zM514 981v152q0 45 -20.5 74.5t-55.5 29.5h-69q-35 0 -55.5 -29.5t-20.5 -74.5v-152q0 -45 20.5 -74.5t55.5 -29.5h69
q35 0 55.5 29.5t20.5 74.5z" />
    <glyph glyph-name="guillemotright" unicode="&#xbb;" horiz-adv-x="1034" 
d="M932 539l-223 -361h-203l223 361l-223 358h203zM524 539l-221 -361h-201l224 361l-224 358h201z" />
    <glyph glyph-name="onequarter" unicode="&#xbc;" horiz-adv-x="1554" 
d="M1348 0h-152v113h-358v157l284 408h166l-299 -430v-15h207v166l72 99h80v-265h63v-120h-63v-113zM143 684v119h168v411l-168 -40v122l213 66h107v-559h153v-119h-473zM1245 1225l-719 -1057q-49 -70 -49 -115v-73h-166v141l721 1073q47 71 47 115v73h166v-157z" />
    <glyph glyph-name="onehalf" unicode="&#xbd;" horiz-adv-x="1591" 
d="M930 0v100q0 32 13.5 56.5t49.5 54.5l238 201q33 26 33 59v45q0 47 -52 47h-82q-21 0 -37 -15.5t-16 -39.5v-66h-157v76q0 65 50.5 112.5t119.5 47.5h167q83 0 126.5 -46.5t43.5 -121.5v-115l-323 -278h209v55h135v-172h-518zM143 684v119h168v411l-168 -40v122l213 66
h107v-559h153v-119h-473zM1245 1225l-719 -1057q-49 -71 -49 -115v-73h-166v141l721 1073q47 71 47 115v73h166v-157z" />
    <glyph glyph-name="threequarters" unicode="&#xbe;" horiz-adv-x="1611" 
d="M293 1184h-133v178h475v-139l-143 -127q163 0 163 -156v-94q0 -64 -48.5 -115t-104.5 -51h-205q-63 0 -108.5 41.5t-45.5 97.5v74h158v-55q0 -20 14 -31.5t37 -11.5h78q66 0 66 77v68q0 51 -68 51h-98v109l164 145h-201v-61zM1405 0h-152v113h-358v157l285 408h166
l-299 -430v-15h206v166l72 99h80v-265h63v-120h-63v-113zM1303 1225l-719 -1057q-49 -71 -49 -115v-73h-166v141l721 1073q47 71 47 115v73h116z" />
    <glyph glyph-name="questiondown" unicode="&#xbf;" horiz-adv-x="1193" 
d="M133 557l377 227v183h229v-260l-315 -191q-62 -39 -62 -113v-100q0 -131 125 -131h207q75 0 107.5 27.5t32.5 93.5v74h227v-113q0 -119 -82 -191.5t-223 -72.5h-287q-170 0 -253 80.5t-83 214.5v272zM510 1362h229v-262h-229v262z" />
    <glyph glyph-name="Agrave" unicode="&#xc0;" horiz-adv-x="1273" 
d="M1219 0h-238v70q0 105 -53 233l-35 86h-512l-33 -86q-55 -142 -55 -233v-70h-236v162l459 1167v33h246v-33l457 -1171v-158zM823 578l-176 497h-18l-180 -497h374zM782 1475h-172l-225 215h252z" />
    <glyph glyph-name="Aacute" unicode="&#xc1;" horiz-adv-x="1273" 
d="M1219 0h-238v70q0 105 -53 233l-35 86h-512l-33 -86q-55 -142 -55 -233v-70h-236v162l459 1167v33h246v-33l457 -1171v-158zM823 578l-176 497h-18l-180 -497h374zM612 1475h-172l146 215h252z" />
    <glyph glyph-name="Acircumflex" unicode="&#xc2;" horiz-adv-x="1273" 
d="M1219 0h-238v70q0 105 -53 233l-35 86h-512l-33 -86q-55 -142 -55 -233v-70h-236v162l459 1167v33h246v-33l457 -1171v-158zM823 578l-176 497h-18l-180 -497h374zM899 1475h-156l-108 108l-109 -108h-155l161 215h207z" />
    <glyph glyph-name="Atilde" unicode="&#xc3;" horiz-adv-x="1273" 
d="M1219 0h-238v70q0 105 -53 233l-35 86h-512l-33 -86q-55 -142 -55 -233v-70h-236v162l459 1167v33h246v-33l457 -1171v-158zM823 578l-176 497h-18l-180 -497h374zM965 1591l-134 -121h-108q-35 0 -67.5 21.5t-52 47.5t-40.5 47.5t-37 21.5h-32q-60 0 -60 -74v-53h-129
v125l133 118h109q35 0 68 -21.5t52.5 -47t40.5 -47t35 -21.5h33q60 0 60 74v53h129v-123z" />
    <glyph glyph-name="Adieresis" unicode="&#xc4;" horiz-adv-x="1273" 
d="M1219 0h-238v70q0 105 -53 233l-35 86h-512l-33 -86q-55 -142 -55 -233v-70h-236v162l459 1167v33h246v-33l457 -1171v-158zM823 578l-176 497h-18l-180 -497h374zM891 1475h-184v180h184v-180zM565 1475h-184v180h184v-180z" />
    <glyph glyph-name="Aring" unicode="&#xc5;" horiz-adv-x="1284" 
d="M889 1477v-125q0 -35 -25.5 -62t-66.5 -41l426 -1091v-158h-238v70q0 105 -53 233l-35 86h-512l-33 -86q-55 -142 -55 -233v-70h-236v162l426 1087q-41 12 -67.5 39.5t-26.5 63.5v125q0 52 52.5 84t119.5 32h152q67 0 119.5 -32t52.5 -84zM827 578l-176 497h-18
l-180 -497h374zM748 1374v68q0 23 -22.5 36t-49.5 13h-66q-27 0 -50 -13t-23 -36v-68q0 -24 23 -36.5t50 -12.5h66q27 0 49.5 12.5t22.5 36.5z" />
    <glyph glyph-name="AE" unicode="&#xc6;" horiz-adv-x="1740" 
d="M1675 0h-889v389h-383l-57 -125q-55 -122 -55 -194v-70h-236v162l535 1167q2 10 2 33h1069v-186h-643v-388h518v-186h-518v-416h657v-186zM731 1176l-248 -598h303v598h-55z" />
    <glyph glyph-name="Ccedilla" unicode="&#xc7;" horiz-adv-x="1257" 
d="M1174 174l-248 -184h-355q-138 0 -242 62t-155 160t-51 216v504q0 119 51 217.5t155 160.5t242 62h355l248 -184v-195h-234v51q0 61 -45 102.5t-109 41.5h-190q-112 0 -176 -79t-64 -194v-469q0 -116 64 -194t176 -78h190q65 0 109.5 40.5t44.5 102.5v50h234v-193z
M915 -180v-99q0 -53 -45 -92t-112 -39h-152q-60 0 -98.5 44t-38.5 92v38h119v-16q0 -31 18 -50.5t53 -19.5h64q35 0 53.5 18.5t18.5 49.5v43q0 28 -19.5 43.5t-54.5 15.5h-189l31 156h144l-17 -72h74q66 0 108.5 -31.5t42.5 -80.5z" />
    <glyph glyph-name="Egrave" unicode="&#xc8;" horiz-adv-x="1167" 
d="M1102 0h-938v1362h921v-186h-690v-388h563v-186h-563v-416h707v-186zM754 1475h-172l-226 215h252z" />
    <glyph glyph-name="Eacute" unicode="&#xc9;" horiz-adv-x="1167" 
d="M1102 0h-938v1362h921v-186h-690v-388h563v-186h-563v-416h707v-186zM649 1475h-172l146 215h251z" />
    <glyph glyph-name="Ecircumflex" unicode="&#xca;" horiz-adv-x="1167" 
d="M1102 0h-938v1362h921v-186h-690v-388h563v-186h-563v-416h707v-186zM885 1475h-156l-108 108l-109 -108h-156l162 215h207z" />
    <glyph glyph-name="Edieresis" unicode="&#xcb;" horiz-adv-x="1167" 
d="M1102 0h-938v1362h921v-186h-690v-388h563v-186h-563v-416h707v-186zM866 1475h-184v180h184v-180zM541 1475h-185v180h185v-180z" />
    <glyph glyph-name="Igrave" unicode="&#xcc;" horiz-adv-x="559" 
d="M395 0h-231v1362h231v-1362zM446 1475h-172l-225 215h252z" />
    <glyph glyph-name="Iacute" unicode="&#xcd;" horiz-adv-x="559" 
d="M395 0h-231v1362h231v-1362zM274 1475h-172l146 215h252z" />
    <glyph glyph-name="Icircumflex" unicode="&#xce;" horiz-adv-x="559" 
d="M395 0h-231v1362h231v-1362zM545 1475h-156l-108 108l-109 -108h-156l162 215h207z" />
    <glyph glyph-name="Idieresis" unicode="&#xcf;" horiz-adv-x="559" 
d="M395 0h-231v1362h231v-1362zM535 1475h-185v180h185v-180zM209 1475h-184v180h184v-180z" />
    <glyph glyph-name="Eth" unicode="&#xd0;" horiz-adv-x="1353" 
d="M1231 889v-418q0 -202 -125 -336.5t-332 -134.5h-610v590h-96v178h96v594h610q207 0 332 -135t125 -338zM606 590h-211v-404h353q129 0 190 79t61 214v402q0 137 -61 216t-190 79h-353v-408h211v-178z" />
    <glyph glyph-name="Ntilde" unicode="&#xd1;" horiz-adv-x="1398" 
d="M1214 0h-233v47q0 59 -17 100t-59 95l-508 649h-20v-891h-213v1362h231v-49q0 -59 18 -100t60 -93l506 -645h22v887h213v-1362zM1032 1591l-133 -121h-108q-35 0 -67.5 21.5t-52 47.5t-40.5 47.5t-37 21.5h-33q-59 0 -59 -74v-53h-129v125l133 118h108q35 0 68 -21.5
t53 -47t41 -47t35 -21.5h33q59 0 59 74v53h129v-123z" />
    <glyph glyph-name="Ograve" unicode="&#xd2;" horiz-adv-x="1353" 
d="M1241 942v-524q0 -179 -128 -303.5t-333 -124.5h-205q-205 0 -333.5 124.5t-128.5 303.5v524q0 180 128.5 305t333.5 125h205q205 0 333 -125t128 -305zM1006 446v469q0 114 -65 193.5t-177 79.5h-176q-112 0 -177 -79.5t-65 -193.5v-469q0 -115 64.5 -193.5t177.5 -78.5
h176q113 0 177.5 78.5t64.5 193.5zM815 1475h-172l-225 215h252z" />
    <glyph glyph-name="Oacute" unicode="&#xd3;" horiz-adv-x="1353" 
d="M1241 942v-524q0 -179 -128 -303.5t-333 -124.5h-205q-205 0 -333.5 124.5t-128.5 303.5v524q0 180 128.5 305t333.5 125h205q205 0 333 -125t128 -305zM1006 446v469q0 114 -65 193.5t-177 79.5h-176q-112 0 -177 -79.5t-65 -193.5v-469q0 -115 64.5 -193.5t177.5 -78.5
h176q113 0 177.5 78.5t64.5 193.5zM702 1475h-172l146 215h252z" />
    <glyph glyph-name="Ocircumflex" unicode="&#xd4;" horiz-adv-x="1353" 
d="M1241 942v-524q0 -179 -128 -303.5t-333 -124.5h-205q-205 0 -333.5 124.5t-128.5 303.5v524q0 180 128.5 305t333.5 125h205q205 0 333 -125t128 -305zM1006 446v469q0 114 -65 193.5t-177 79.5h-176q-112 0 -177 -79.5t-65 -193.5v-469q0 -115 64.5 -193.5t177.5 -78.5
h176q113 0 177.5 78.5t64.5 193.5zM940 1475h-156l-108 108l-109 -108h-155l161 215h207z" />
    <glyph glyph-name="Otilde" unicode="&#xd5;" horiz-adv-x="1353" 
d="M1241 942v-524q0 -179 -128 -303.5t-333 -124.5h-205q-205 0 -333.5 124.5t-128.5 303.5v524q0 180 128.5 305t333.5 125h205q205 0 333 -125t128 -305zM1006 446v469q0 114 -65 193.5t-177 79.5h-176q-112 0 -177 -79.5t-65 -193.5v-469q0 -115 64.5 -193.5t177.5 -78.5
h176q113 0 177.5 78.5t64.5 193.5zM1010 1591l-133 -121h-109q-35 0 -67.5 21.5t-52 47.5t-40.5 47.5t-37 21.5h-32q-60 0 -60 -74v-53h-129v125l133 118h109q35 0 68 -21.5t52.5 -47t40.5 -47t35 -21.5h33q60 0 60 74v53h129v-123z" />
    <glyph glyph-name="Odieresis" unicode="&#xd6;" horiz-adv-x="1353" 
d="M1241 942v-524q0 -179 -128 -303.5t-333 -124.5h-205q-205 0 -333.5 124.5t-128.5 303.5v524q0 180 128.5 305t333.5 125h205q205 0 333 -125t128 -305zM1006 446v469q0 114 -65 193.5t-177 79.5h-176q-112 0 -177 -79.5t-65 -193.5v-469q0 -115 64.5 -193.5t177.5 -78.5
h176q113 0 177.5 78.5t64.5 193.5zM930 1475h-185v180h185v-180zM604 1475h-184v180h184v-180z" />
    <glyph glyph-name="multiply" unicode="&#xd7;" 
d="M367 244q-23 24 -66.5 66t-52.5 52l217 222l-219 219l123 121l217 -219l69.5 69.5t81 80.5t68.5 69l121 -121l-217 -219l219 -222l-121 -120l-221 219z" />
    <glyph glyph-name="Oslash" unicode="&#xd8;" horiz-adv-x="1406" 
d="M102 -41l140 182q-92 115 -92 256v566q0 187 134 298t349 111h190q143 0 258 -78l84 109h140l-140 -184q92 -112 92 -256v-566q0 -185 -134 -296t-347 -111h-190q-148 0 -260 76l-84 -107h-140zM385 946v-530q0 -35 8 -66l565 776q-59 62 -145 62h-219q-95 0 -152 -70.5
t-57 -171.5zM1024 416v530q0 24 -10 66l-565 -779q59 -59 145 -59h219q97 0 154 70t57 172z" />
    <glyph glyph-name="Ugrave" unicode="&#xd9;" horiz-adv-x="1398" 
d="M1214 1362v-963q0 -167 -116.5 -288t-296.5 -121h-226q-119 0 -214 57t-146 150t-51 202v963h231v-959q0 -94 58.5 -161.5t142.5 -67.5h184q84 0 143.5 67.5t59.5 161.5v959h231zM829 1475h-172l-225 215h252z" />
    <glyph glyph-name="Uacute" unicode="&#xda;" horiz-adv-x="1398" 
d="M1214 1362v-963q0 -167 -116.5 -288t-296.5 -121h-226q-119 0 -214 57t-146 150t-51 202v963h231v-959q0 -94 58.5 -161.5t142.5 -67.5h184q84 0 143.5 67.5t59.5 161.5v959h231zM735 1475h-172l146 215h252z" />
    <glyph glyph-name="Ucircumflex" unicode="&#xdb;" horiz-adv-x="1398" 
d="M1214 1362v-963q0 -167 -116.5 -288t-296.5 -121h-226q-119 0 -214 57t-146 150t-51 202v963h231v-959q0 -94 58.5 -161.5t142.5 -67.5h184q84 0 143.5 67.5t59.5 161.5v959h231zM954 1475h-155l-109 108l-108 -108h-156l162 215h207z" />
    <glyph glyph-name="Udieresis" unicode="&#xdc;" horiz-adv-x="1398" 
d="M1214 1362v-963q0 -167 -116.5 -288t-296.5 -121h-226q-119 0 -214 57t-146 150t-51 202v963h231v-959q0 -94 58.5 -161.5t142.5 -67.5h184q84 0 143.5 67.5t59.5 161.5v959h231zM946 1475h-184v180h184v-180zM621 1475h-185v180h185v-180z" />
    <glyph glyph-name="Yacute" unicode="&#xdd;" horiz-adv-x="1183" 
d="M1133 1194l-424 -729v-465h-232v465l-426 725v172h236v-78q0 -56 57 -164l236 -428h26l236 428q32 58 43.5 90t11.5 74v78h236v-168zM639 1458h-172l145 215h252z" />
    <glyph glyph-name="Thorn" unicode="&#xde;" horiz-adv-x="1198" 
d="M1116 788v-176q0 -97 -57.5 -179.5t-144 -126.5t-177.5 -44h-342v-262h-231v1362h231v-225h320q107 0 197.5 -40.5t147 -121.5t56.5 -187zM881 629v147q0 86 -52.5 131t-148.5 45h-285v-508h312q70 0 122 52.5t52 132.5z" />
    <glyph glyph-name="germandbls" unicode="&#xdf;" horiz-adv-x="1228" 
d="M1106 498v-293l-219 -205h-379v162h209q70 0 117 52.5t47 125.5v143q0 63 -55 100.5t-132 37.5h-143v161h98q75 0 132 48.5t57 111.5v94q0 176 -152 176h-174q-66 0 -104.5 -52.5t-38.5 -127.5v-1247h-226v1268q0 132 92 225.5t220 93.5h272q160 0 245 -85.5t85 -237.5
v-193l-146 -127q195 -81 195 -231z" />
    <glyph glyph-name="agrave" unicode="&#xe0;" horiz-adv-x="1095" 
d="M1012 0h-156l-82 100l-139 -110h-258q-119 0 -200 74.5t-81 187.5v102q0 101 77.5 167.5t188.5 66.5h361v119q0 116 -105 116h-165q-36 0 -62.5 -12.5t-30.5 -38.5l-4 -31h-211v138l172 104h345q121 0 200.5 -71t79.5 -187v-510l70 -88v-127zM723 340v98h-293
q-42 0 -76.5 -27t-34.5 -77v-62q0 -59 36 -93t94 -34h96q71 0 124.5 56t53.5 139zM676 1085h-172l-225 215h251z" />
    <glyph glyph-name="aacute" unicode="&#xe1;" horiz-adv-x="1095" 
d="M1012 0h-156l-82 100l-139 -110h-258q-119 0 -200 74.5t-81 187.5v102q0 101 77.5 167.5t188.5 66.5h361v119q0 116 -105 116h-165q-36 0 -62.5 -12.5t-30.5 -38.5l-4 -31h-211v138l172 104h345q121 0 200.5 -71t79.5 -187v-510l70 -88v-127zM723 340v98h-293
q-42 0 -76.5 -27t-34.5 -77v-62q0 -59 36 -93t94 -34h96q71 0 124.5 56t53.5 139zM580 1085h-172l145 215h252z" />
    <glyph glyph-name="acircumflex" unicode="&#xe2;" horiz-adv-x="1095" 
d="M1012 0h-156l-82 100l-139 -110h-258q-119 0 -200 74.5t-81 187.5v102q0 101 77.5 167.5t188.5 66.5h361v119q0 116 -105 116h-165q-36 0 -62.5 -12.5t-30.5 -38.5l-4 -31h-211v138l172 104h345q121 0 200.5 -71t79.5 -187v-510l70 -88v-127zM723 340v98h-293
q-42 0 -76.5 -27t-34.5 -77v-62q0 -59 36 -93t94 -34h96q71 0 124.5 56t53.5 139zM813 1085h-156l-108 109l-109 -109h-155l161 215h207z" />
    <glyph glyph-name="atilde" unicode="&#xe3;" horiz-adv-x="1095" 
d="M1012 0h-156l-82 100l-139 -110h-258q-119 0 -200 74.5t-81 187.5v102q0 101 77.5 167.5t188.5 66.5h361v119q0 116 -105 116h-165q-36 0 -62.5 -12.5t-30.5 -38.5l-4 -31h-211v138l172 104h345q121 0 200.5 -71t79.5 -187v-510l70 -88v-127zM723 340v98h-293
q-42 0 -76.5 -27t-34.5 -77v-62q0 -59 36 -93t94 -34h96q71 0 124.5 56t53.5 139zM870 1202l-133 -121h-108q-35 0 -67.5 21.5t-52 47.5t-40.5 47.5t-37 21.5h-33q-59 0 -59 -74v-53h-129v125l133 118h109q35 0 68 -21.5t52.5 -47t40.5 -47t35 -21.5h33q59 0 59 74v53h129
v-123z" />
    <glyph glyph-name="adieresis" unicode="&#xe4;" horiz-adv-x="1095" 
d="M1012 0h-156l-82 100l-139 -110h-258q-119 0 -200 74.5t-81 187.5v102q0 101 77.5 167.5t188.5 66.5h361v119q0 116 -105 116h-165q-36 0 -62.5 -12.5t-30.5 -38.5l-4 -31h-211v138l172 104h345q121 0 200.5 -71t79.5 -187v-510l70 -88v-127zM723 340v98h-293
q-42 0 -76.5 -27t-34.5 -77v-62q0 -59 36 -93t94 -34h96q71 0 124.5 56t53.5 139zM803 1085h-185v181h185v-181zM477 1085h-184v181h184v-181z" />
    <glyph glyph-name="aring" unicode="&#xe5;" horiz-adv-x="1095" 
d="M1012 0h-156l-82 100l-139 -110h-258q-119 0 -200 74.5t-81 187.5v102q0 101 77.5 167.5t188.5 66.5h361v119q0 116 -105 116h-165q-36 0 -62.5 -12.5t-30.5 -38.5l-4 -31h-211v138l172 104h345q121 0 200.5 -71t79.5 -187v-510l70 -88v-127zM723 340v98h-293
q-42 0 -76.5 -27t-34.5 -77v-62q0 -59 36 -93t94 -34h96q71 0 124.5 56t53.5 139zM805 1319v-125q0 -51 -53 -83t-119 -32h-152q-66 0 -119 32t-53 83v125q0 53 53 85t119 32h152q66 0 119 -32t53 -85zM676 1217v81q0 23 -23 36.5t-49 13.5h-92q-27 0 -50.5 -13.5
t-23.5 -36.5v-81q0 -24 23.5 -37t50.5 -13h92q27 0 49.5 13t22.5 37z" />
    <glyph glyph-name="ae" unicode="&#xe6;" horiz-adv-x="1677" 
d="M1571 649v-207h-623v-104q0 -75 48.5 -133t119.5 -58h96q66 0 104 31t38 88v15h217v-144l-193 -147h-297q-173 0 -284 131l-160 -131h-258q-121 0 -202 74.5t-81 187.5v102q0 101 79 167.5t190 66.5h358v119q0 116 -105 116h-163q-39 0 -64.5 -13t-28.5 -38l-4 -31h-211
v138l170 104h347q116 0 194 -72q90 72 242 72h139q140 0 236 -93t96 -241zM545 145q70 0 124 54.5t54 134.5v104h-291q-43 0 -78 -27t-35 -77v-62q0 -59 37 -93t95 -34h94zM1354 592q0 113 -31 172t-109 59h-120q-53 0 -87.5 -35t-46.5 -84t-12 -112h406z" />
    <glyph glyph-name="ccedilla" unicode="&#xe7;" horiz-adv-x="1036" 
d="M946 143l-198 -153h-297q-151 0 -256 98t-105 225v346q0 128 100 226t250 98h308l198 -154v-153h-223v22q0 54 -39.5 88.5t-95.5 34.5h-103q-77 0 -122.5 -57t-45.5 -137v-283q0 -79 46 -136.5t122 -57.5h103q56 0 95.5 35t39.5 89v23h223v-154zM784 -180v-99
q0 -53 -45 -92t-112 -39h-152q-60 0 -98.5 44t-38.5 92v38h119v-16q0 -31 18 -50.5t53 -19.5h64q35 0 53.5 18.5t18.5 49.5v43q0 28 -19.5 43.5t-54.5 15.5h-189l31 156h143l-16 -72h74q66 0 108.5 -31.5t42.5 -80.5z" />
    <glyph glyph-name="egrave" unicode="&#xe8;" horiz-adv-x="1069" 
d="M963 649v-207h-631v-98q0 -77 47 -137t119 -60h106q66 0 102.5 31.5t36.5 87.5v15h220v-144l-193 -147h-305q-151 0 -255 98t-104 225v316q0 90 38.5 169.5t118 132t183.5 52.5h218q124 0 211.5 -100.5t87.5 -233.5zM745 592q0 114 -30.5 172.5t-110.5 58.5h-129
q-143 0 -143 -231h413zM682 1085h-172l-225 215h252z" />
    <glyph glyph-name="eacute" unicode="&#xe9;" horiz-adv-x="1069" 
d="M963 649v-207h-631v-98q0 -77 47 -137t119 -60h106q66 0 102.5 31.5t36.5 87.5v15h220v-144l-193 -147h-305q-151 0 -255 98t-104 225v316q0 90 38.5 169.5t118 132t183.5 52.5h218q124 0 211.5 -100.5t87.5 -233.5zM745 592q0 114 -30.5 172.5t-110.5 58.5h-129
q-143 0 -143 -231h413zM592 1085h-172l145 215h252z" />
    <glyph glyph-name="ecircumflex" unicode="&#xea;" horiz-adv-x="1069" 
d="M963 649v-207h-631v-98q0 -77 47 -137t119 -60h106q66 0 102.5 31.5t36.5 87.5v15h220v-144l-193 -147h-305q-151 0 -255 98t-104 225v316q0 90 38.5 169.5t118 132t183.5 52.5h218q124 0 211.5 -100.5t87.5 -233.5zM745 592q0 114 -30.5 172.5t-110.5 58.5h-129
q-143 0 -143 -231h413zM807 1085h-156l-108 109l-109 -109h-155l161 215h207z" />
    <glyph glyph-name="edieresis" unicode="&#xeb;" horiz-adv-x="1069" 
d="M963 649v-207h-631v-98q0 -77 47 -137t119 -60h106q66 0 102.5 31.5t36.5 87.5v15h220v-144l-193 -147h-305q-151 0 -255 98t-104 225v316q0 90 38.5 169.5t118 132t183.5 52.5h218q124 0 211.5 -100.5t87.5 -233.5zM745 592q0 114 -30.5 172.5t-110.5 58.5h-129
q-143 0 -143 -231h413zM795 1085h-185v181h185v-181zM469 1085h-184v181h184v-181z" />
    <glyph glyph-name="igrave" unicode="&#xec;" horiz-adv-x="516" 
d="M414 1085h-172l-226 215h252zM373 0h-230v973h230v-973z" />
    <glyph glyph-name="iacute" unicode="&#xed;" horiz-adv-x="516" 
d="M248 1085h-172l145 215h252zM373 0h-230v973h230v-973z" />
    <glyph glyph-name="icircumflex" unicode="&#xee;" horiz-adv-x="516" 
d="M373 0h-230v973h230v-973zM522 1085h-155l-109 109l-108 -109h-156l162 215h206z" />
    <glyph glyph-name="idieresis" unicode="&#xef;" horiz-adv-x="516" 
d="M514 1085h-184v181h184v-181zM188 1085h-184v181h184v-181zM373 0h-230v973h230v-973z" />
    <glyph glyph-name="eth" unicode="&#xf0;" horiz-adv-x="1146" 
d="M1018 342q0 -142 -91.5 -247t-240.5 -105h-223q-154 0 -247 104.5t-93 247.5v291q0 90 39.5 168.5t119.5 130t185 51.5h184q16 0 35.5 -6t26.5 -16q42 0 86 -21q0 133 -21 203t-68.5 98.5t-138.5 28.5h-245v164h231q461 0 461 -453v-639zM795 354v301q0 164 -172 164
h-111q-78 0 -122 -57.5t-44 -147.5v-258q0 -90 44 -146t122 -56h117q78 0 122 55.5t44 144.5zM1018 1364l-432 -313v100l432 313v-100z" />
    <glyph glyph-name="ntilde" unicode="&#xf1;" horiz-adv-x="1132" 
d="M991 637v-637h-223v662q0 78 -32.5 117.5t-90.5 39.5h-84q-73 0 -133.5 -62.5t-60.5 -142.5v-614h-224v973h174l13 -107h18l135 117h232q69 0 119.5 -19.5t80 -50t47 -77.5t23.5 -93.5t6 -105.5zM903 1202l-133 -121h-108q-35 0 -67.5 21.5t-52 47.5t-40.5 47.5t-37 21.5
h-33q-59 0 -59 -74v-53h-129v125l133 118h108q35 0 68 -21.5t53 -47t41 -47t35 -21.5h33q59 0 59 74v53h129v-123z" />
    <glyph glyph-name="ograve" unicode="&#xf2;" horiz-adv-x="1107" 
d="M1001 631v-289q0 -143 -94 -247.5t-252 -104.5h-204q-157 0 -251 104.5t-94 247.5v289q0 91 39.5 170t120 130.5t185.5 51.5h204q106 0 186.5 -51.5t120 -130.5t39.5 -170zM778 356v258q0 90 -44 147.5t-122 57.5h-116q-78 0 -122 -57.5t-44 -147.5v-258q0 -90 44 -146
t122 -56h116q78 0 122 56t44 146zM686 1085h-172l-225 215h252z" />
    <glyph glyph-name="oacute" unicode="&#xf3;" horiz-adv-x="1107" 
d="M1001 631v-289q0 -143 -94 -247.5t-252 -104.5h-204q-157 0 -251 104.5t-94 247.5v289q0 91 39.5 170t120 130.5t185.5 51.5h204q106 0 186.5 -51.5t120 -130.5t39.5 -170zM778 356v258q0 90 -44 147.5t-122 57.5h-116q-78 0 -122 -57.5t-44 -147.5v-258q0 -90 44 -146
t122 -56h116q78 0 122 56t44 146zM586 1085h-172l145 215h252z" />
    <glyph glyph-name="ocircumflex" unicode="&#xf4;" horiz-adv-x="1107" 
d="M1001 631v-289q0 -143 -94 -247.5t-252 -104.5h-204q-157 0 -251 104.5t-94 247.5v289q0 91 39.5 170t120 130.5t185.5 51.5h204q106 0 186.5 -51.5t120 -130.5t39.5 -170zM778 356v258q0 90 -44 147.5t-122 57.5h-116q-78 0 -122 -57.5t-44 -147.5v-258q0 -90 44 -146
t122 -56h116q78 0 122 56t44 146zM817 1085h-155l-109 109l-109 -109h-155l162 215h206z" />
    <glyph glyph-name="otilde" unicode="&#xf5;" horiz-adv-x="1107" 
d="M1001 631v-289q0 -143 -94 -247.5t-252 -104.5h-204q-157 0 -251 104.5t-94 247.5v289q0 91 39.5 170t120 130.5t185.5 51.5h204q106 0 186.5 -51.5t120 -130.5t39.5 -170zM778 356v258q0 90 -44 147.5t-122 57.5h-116q-78 0 -122 -57.5t-44 -147.5v-258q0 -90 44 -146
t122 -56h116q78 0 122 56t44 146zM883 1202l-133 -121h-109q-35 0 -67.5 21.5t-52 47.5t-40.5 47.5t-37 21.5h-32q-60 0 -60 -74v-53h-129v125l133 118h109q35 0 68 -21.5t53 -47t41 -47t35 -21.5h32q60 0 60 74v53h129v-123z" />
    <glyph glyph-name="odieresis" unicode="&#xf6;" horiz-adv-x="1107" 
d="M1001 631v-289q0 -143 -94 -247.5t-252 -104.5h-204q-157 0 -251 104.5t-94 247.5v289q0 91 39.5 170t120 130.5t185.5 51.5h204q106 0 186.5 -51.5t120 -130.5t39.5 -170zM778 356v258q0 90 -44 147.5t-122 57.5h-116q-78 0 -122 -57.5t-44 -147.5v-258q0 -90 44 -146
t122 -56h116q78 0 122 56t44 146zM809 1085h-184v181h184v-181zM483 1085h-184v181h184v-181z" />
    <glyph glyph-name="divide" unicode="&#xf7;" 
d="M967 502h-758v174h758v-174zM494 797v176h188v-176h-188zM494 201v176h188v-176h-188z" />
    <glyph glyph-name="oslash" unicode="&#xf8;" horiz-adv-x="1116" 
d="M1006 631v-289q0 -143 -94.5 -247.5t-252.5 -104.5h-204q-109 0 -191 53l-51 -63h-152l119 143q-69 90 -69 219v289q0 91 39.5 170t119.5 130.5t185 51.5h204q113 0 193 -55l63 76h152l-131 -158q70 -95 70 -215zM334 356q0 -31 2 -45l389 465q-43 43 -109 43h-116
q-78 0 -122 -57.5t-44 -147.5v-258zM782 356v258q0 15 -4 43l-387 -462q41 -41 109 -41h116q78 0 122 56t44 146z" />
    <glyph glyph-name="ugrave" unicode="&#xf9;" horiz-adv-x="1132" 
d="M143 336v637h224v-656q0 -159 122 -159h95q73 0 128.5 58.5t55.5 139.5v617h223v-973h-174l-12 106h-19l-145 -116h-221q-69 0 -119.5 19.5t-80 50t-47.5 77.5t-24 93.5t-6 105.5zM711 1085h-172l-226 215h252z" />
    <glyph glyph-name="uacute" unicode="&#xfa;" horiz-adv-x="1132" 
d="M143 336v637h224v-656q0 -159 122 -159h95q73 0 128.5 58.5t55.5 139.5v617h223v-973h-174l-12 106h-19l-145 -116h-221q-69 0 -119.5 19.5t-80 50t-47.5 77.5t-24 93.5t-6 105.5zM600 1085h-172l145 215h252z" />
    <glyph glyph-name="ucircumflex" unicode="&#xfb;" horiz-adv-x="1132" 
d="M143 336v637h224v-656q0 -159 122 -159h95q73 0 128.5 58.5t55.5 139.5v617h223v-973h-174l-12 106h-19l-145 -116h-221q-69 0 -119.5 19.5t-80 50t-47.5 77.5t-24 93.5t-6 105.5zM836 1085h-156l-109 109l-108 -109h-156l162 215h207z" />
    <glyph glyph-name="udieresis" unicode="&#xfc;" horiz-adv-x="1132" 
d="M143 336v637h224v-656q0 -159 122 -159h95q73 0 128.5 58.5t55.5 139.5v617h223v-973h-174l-12 106h-19l-145 -116h-221q-69 0 -119.5 19.5t-80 50t-47.5 77.5t-24 93.5t-6 105.5zM825 1085h-184v181h184v-181zM500 1085h-185v181h185v-181z" />
    <glyph glyph-name="yacute" unicode="&#xfd;" horiz-adv-x="1040" 
d="M973 844l-477 -1127l-177 -147h-288v180h155q54 0 91.5 31t72.5 106l70 154l-338 805v127h225v-41q0 -73 58 -223l153 -398h21l159 410q52 127 52 211v41h223v-129zM569 1085h-172l146 215h252z" />
    <glyph glyph-name="thorn" unicode="&#xfe;" horiz-adv-x="1138" 
d="M1028 635v-303q0 -84 -35 -161t-107 -129t-165 -52h-162q-58 0 -114.5 31.5t-77.5 72.5v-514h-224v1854h224v-478q0 -12 1 -33t1 -32q33 44 86 68t112 24h150q146 0 228.5 -94.5t82.5 -253.5zM803 344v268q0 101 -37 154t-104 53h-115q-81 0 -133 -57.5t-52 -143.5v-292
q0 -71 58.5 -121.5t120.5 -50.5h104q71 0 114.5 56.5t43.5 133.5z" />
    <glyph glyph-name="ydieresis" unicode="&#xff;" horiz-adv-x="1040" 
d="M973 844l-477 -1127l-177 -147h-288v180h155q54 0 91.5 31t72.5 106l70 154l-338 805v127h225v-41q0 -73 58 -223l153 -398h21l159 410q52 127 52 211v41h223v-129zM782 1085h-184v181h184v-181zM457 1085h-185v181h185v-181z" />
    <glyph glyph-name="dotlessi" unicode="&#x131;" horiz-adv-x="516" 
d="M373 0h-230v973h230v-973z" />
    <glyph glyph-name="Lslash" unicode="&#x141;" horiz-adv-x="1107" 
d="M621 690q-88 -30 -201 -63v-441h649v-186h-881v553l-147 -45v182l147 47v625h232v-553q88 30 201 63v-182z" />
    <glyph glyph-name="lslash" unicode="&#x142;" horiz-adv-x="567" 
d="M395 0h-223v543q-64 -18 -129 -39v184q65 18 129 39v707h223v-637q22 6 129 41v-185q-22 -6 -129 -41v-612z" />
    <glyph glyph-name="OE" unicode="&#x152;" horiz-adv-x="1744" 
d="M1665 0h-1141q-114 0 -211.5 55.5t-154 146.5t-56.5 193v570q0 103 56.5 194.5t154 147t211.5 55.5h1125v-186h-648v-388h523v-186h-523v-416h664v-186zM336 424q0 -94 61.5 -167t149.5 -73h223v992h-223q-89 0 -150 -72.5t-61 -167.5v-512z" />
    <glyph glyph-name="oe" unicode="&#x153;" horiz-adv-x="1746" 
d="M1636 649v-207h-630v-98q0 -77 46.5 -137t118.5 -60h107q66 0 102.5 31.5t36.5 87.5v15h219v-144l-192 -147h-305q-150 0 -246 96q-86 -96 -234 -96h-204q-105 0 -185 51t-119.5 130t-39.5 171v289q0 91 39.5 170t119.5 130.5t185 51.5h204q145 0 232 -94q87 94 229 94
h217q124 0 211.5 -100.5t87.5 -233.5zM782 356v258q0 90 -44 147.5t-122 57.5h-116q-78 0 -122 -57.5t-44 -147.5v-258q0 -90 44 -146t122 -56h116q78 0 122 56t44 146zM1419 592q0 114 -30.5 172.5t-110.5 58.5h-129q-143 0 -143 -231h413z" />
    <glyph glyph-name="Scaron" unicode="&#x160;" horiz-adv-x="1191" 
d="M1083 469v-205q0 -102 -92.5 -188t-232.5 -86h-430l-215 160v200h217v-47q0 -67 52.5 -103t115.5 -36h182q70 0 120 39t50 106v135q0 54 -31 90t-88 48l-389 80q-105 22 -163 92.5t-58 177.5v158q0 117 83 199.5t226 82.5h422l219 -164v-204h-219v43q0 65 -41 109
t-106 44h-207q-67 0 -106.5 -31.5t-39.5 -93.5v-112q0 -47 31 -79t74 -42l387 -80q126 -26 182.5 -98.5t56.5 -194.5zM336 1690h156l108 -111l109 111h155l-162 -215h-206z" />
    <glyph glyph-name="scaron" unicode="&#x161;" horiz-adv-x="1040" 
d="M924 326v-109q0 -82 -74.5 -154.5t-183.5 -72.5h-394l-170 149v146h209l6 -39q17 -105 125 -105h140q55 0 87.5 24t32.5 64v58q0 49 -26 69t-90 37q-33 9 -87.5 20t-93.5 20t-88 22.5t-82 31t-63.5 42t-45.5 60t-15 79.5v92q0 101 74 162t188 61h362q24 -23 52.5 -48
t63.5 -56t54 -48v-141h-209l-6 39q-16 100 -125 100h-139q-46 0 -74 -21.5t-28 -64.5v-47q0 -29 26.5 -49.5t69.5 -30.5q37 -9 93 -21.5t88.5 -20t77.5 -19t71.5 -22t58.5 -25t49.5 -31.5t34.5 -39.5t24 -50t7 -61.5zM262 1300h144q12 -44 37.5 -67t74.5 -37q47 14 73.5 37
t37.5 67h143q-21 -92 -66.5 -139.5t-127.5 -75.5h-119q-83 28 -129.5 75.5t-67.5 139.5z" />
    <glyph glyph-name="Ydieresis" unicode="&#x178;" horiz-adv-x="1214" 
d="M1133 1194l-424 -729v-465h-232v465l-426 725v172h236v-78q0 -56 57 -164l236 -428h26l236 428q32 58 43.5 90t11.5 74v78h236v-168zM844 1477h-185v180h185v-180zM518 1477h-184v180h184v-180z" />
    <glyph glyph-name="Zcaron" unicode="&#x17d;" horiz-adv-x="1169" 
d="M1090 0h-990v295l721 823v58h-710v186h950v-297l-721 -823v-56h750v-186zM303 1690h156l108 -111l109 111h155l-161 -215h-207z" />
    <glyph glyph-name="zcaron" unicode="&#x17e;" horiz-adv-x="964" 
d="M893 0h-793v207l510 571v31h-518v164h774v-209l-512 -571v-29h539v-164zM213 1300h156l108 -110l109 110h155l-161 -215h-207z" />
    <glyph glyph-name="florin" unicode="&#x192;" horiz-adv-x="843" 
d="M858 1262h-168q-59 0 -94 -43t-47 -111l-23 -135h273l-29 -162h-274l-154 -883q-4 -24 -8 -42.5t-16.5 -57t-28 -68t-44 -65.5t-63 -59.5t-86 -39.5t-112.5 -16h-207l30 172h162q60 0 97.5 43.5t48.5 110.5l159 905h-221l31 162h219l29 162q8 51 29.5 98.5t60 95
t105.5 76.5t153 29h209z" />
    <glyph glyph-name="circumflex" unicode="&#x2c6;" horiz-adv-x="774" 
d="M651 1085h-155l-109 109l-108 -109h-156l162 215h207z" />
    <glyph glyph-name="caron" unicode="&#x2c7;" horiz-adv-x="733" 
d="M104 1300h156l109 -110l108 110h156l-162 -215h-207z" />
    <glyph glyph-name="breve" unicode="&#x2d8;" horiz-adv-x="716" 
d="M594 1300q0 -69 -14 -112t-46.5 -65.5t-72 -30t-103.5 -7.5t-103.5 7.5t-71.5 30t-46 65.5t-14 112h117q0 -57 26.5 -74.5t91.5 -17.5q66 0 93.5 18t27.5 74h115z" />
    <glyph glyph-name="dotaccent" unicode="&#x2d9;" horiz-adv-x="452" 
d="M330 1085h-207v215h207v-215z" />
    <glyph glyph-name="ring" unicode="&#x2da;" horiz-adv-x="720" 
d="M608 1319v-125q0 -51 -53 -83t-119 -32h-151q-66 0 -119 32t-53 83v125q0 53 53 85t119 32h151q66 0 119 -32t53 -85zM479 1217v81q0 23 -22.5 36.5t-48.5 13.5h-93q-26 0 -49.5 -13.5t-23.5 -36.5v-81q0 -24 23 -37t50 -13h93q27 0 49 13t22 37z" />
    <glyph glyph-name="ogonek" unicode="&#x2db;" horiz-adv-x="550" 
d="M428 -403h-119q-91 0 -138.5 39.5t-47.5 115.5q0 51 37 121l78 154h151l-106 -215q-21 -42 -21 -64q0 -23 18 -32t56 -9h92v-110z" />
    <glyph glyph-name="tilde" unicode="&#x2dc;" horiz-adv-x="905" 
d="M782 1202l-133 -121h-108q-35 0 -67.5 21.5t-52 47.5t-40.5 47.5t-37 21.5h-33q-59 0 -59 -74v-53h-129v125l133 118h109q35 0 68 -21.5t52.5 -47t40.5 -47t35 -21.5h33q59 0 59 74v53h129v-123z" />
    <glyph glyph-name="hungarumlaut" unicode="&#x2dd;" horiz-adv-x="784" 
d="M662 1300l-183 -215h-119l115 215h187zM424 1300l-182 -215h-119l115 215h186z" />
    <glyph glyph-name="Delta" unicode="&#x394;" horiz-adv-x="1554" 
d="M1399 0h-1245l622 1405zM1096 186l-324 781l-321 -781h645z" />
    <glyph glyph-name="Delta" unicode="&#x2206;" horiz-adv-x="1554" 
d="M1399 0h-1245l622 1405zM1096 186l-324 781l-321 -781h645z" />
    <glyph glyph-name="Omega" unicode="&#x3a9;" horiz-adv-x="1562" 
d="M1378 756q0 -81 -9 -146.5t-32 -128t-60.5 -108t-98 -79.5t-140.5 -50v-84h297v-160h-471v340q76 9 128 32.5t84 58.5t49.5 93t23.5 120.5t6 156.5q0 228 -83 319.5t-292 91.5q-210 0 -292 -91.5t-82 -319.5q0 -67 2.5 -115t9.5 -96.5t20 -81.5t34 -64t51.5 -50.5
t72 -33.5t96.5 -20v-340h-471v160h295v84q-84 17 -144 52t-96 80.5t-57 111t-28 132t-7 156.5q0 312 142 454t454 142q310 0 454 -146.5t144 -469.5z" />
    <glyph glyph-name="Omega" unicode="&#x2126;" horiz-adv-x="1562" 
d="M1378 756q0 -81 -9 -146.5t-32 -128t-60.5 -108t-98 -79.5t-140.5 -50v-84h297v-160h-471v340q76 9 128 32.5t84 58.5t49.5 93t23.5 120.5t6 156.5q0 228 -83 319.5t-292 91.5q-210 0 -292 -91.5t-82 -319.5q0 -67 2.5 -115t9.5 -96.5t20 -81.5t34 -64t51.5 -50.5
t72 -33.5t96.5 -20v-340h-471v160h295v84q-84 17 -144 52t-96 80.5t-57 111t-28 132t-7 156.5q0 312 142 454t454 142q310 0 454 -146.5t144 -469.5z" />
    <glyph glyph-name="pi" unicode="&#x3c0;" 
d="M1075 795h-157v-582l73 -76v-137h-123l-131 127v668h-293v-795h-180v795h-160v178h971v-178z" />
    <glyph glyph-name="endash" unicode="&#x2013;" horiz-adv-x="952" 
d="M961 500h-859v178h859v-178z" />
    <glyph glyph-name="emdash" unicode="&#x2014;" horiz-adv-x="1873" 
d="M1778 500h-1676v178h1676v-178z" />
    <glyph glyph-name="quoteleft" unicode="&#x2018;" horiz-adv-x="456" 
d="M113 954l71 408h150v-408h-221z" />
    <glyph glyph-name="quoteright" unicode="&#x2019;" horiz-adv-x="454" 
d="M342 1362l-70 -408h-149v408h219z" />
    <glyph glyph-name="quotesinglbase" unicode="&#x201a;" horiz-adv-x="481" 
d="M369 211l-74 -408h-172v408h246z" />
    <glyph glyph-name="quotedblleft" unicode="&#x201c;" horiz-adv-x="792" 
d="M113 954l71 408h150v-408h-221zM446 954l72 408h152v-408h-224z" />
    <glyph glyph-name="quotedblright" unicode="&#x201d;" horiz-adv-x="772" 
d="M659 1362l-69 -408h-148v408h217zM340 1362l-70 -408h-147v408h217z" />
    <glyph glyph-name="quotedblbase" unicode="&#x201e;" horiz-adv-x="776" 
d="M348 211l-74 -408h-151v408h225zM662 211l-72 -408h-154v408h226z" />
    <glyph glyph-name="dagger" unicode="&#x2020;" horiz-adv-x="1021" 
d="M879 768h-269v-1178h-207v1178h-260v172h260v422h207v-422h269v-172z" />
    <glyph glyph-name="daggerdbl" unicode="&#x2021;" horiz-adv-x="1019" 
d="M879 768h-269v-297h269v-170h-269v-711h-207v711h-260v170h260v297h-260v172h260v422h207v-422h269v-172z" />
    <glyph glyph-name="bullet" unicode="&#x2022;" horiz-adv-x="960" 
d="M719 893v-453h-473v453h473z" />
    <glyph glyph-name="ellipsis" unicode="&#x2026;" horiz-adv-x="1368" 
d="M1249 0h-243v231h243v-231zM809 0h-246v231h246v-231zM367 0h-244v231h244v-231z" />
    <glyph glyph-name="perthousand" unicode="&#x2030;" horiz-adv-x="2246" 
d="M688 1186v-326q0 -68 -52 -122t-124 -54h-188q-73 0 -127 54t-54 122v326q0 66 54 121t127 55h188q72 0 124 -54.5t52 -121.5zM1468 502v-326q0 -68 -52 -122t-124 -54h-188q-73 0 -126.5 54t-53.5 122v326q0 67 53.5 121.5t126.5 54.5h188q72 0 124 -54.5t52 -121.5z
M528 887v270q0 40 -17 64t-48 24h-94q-31 0 -48.5 -24.5t-17.5 -63.5v-270q0 -39 17.5 -63.5t48.5 -24.5h94q31 0 48 24t17 64zM1309 203v270q0 39 -17.5 63.5t-48.5 24.5h-94q-31 0 -48.5 -24.5t-17.5 -63.5v-270q0 -39 17.5 -63.5t48.5 -24.5h94q31 0 48.5 24.5t17.5 63.5
zM1272 1225l-719 -1057q-49 -70 -49 -115v-73h-166v141l721 1073q47 71 47 115v73h166v-157zM2103 502v-326q0 -68 -52 -122t-124 -54h-188q-73 0 -126.5 54t-53.5 122v326q0 67 53.5 121.5t126.5 54.5h188q72 0 124 -54.5t52 -121.5zM1944 203v270q0 39 -17.5 63.5
t-48.5 24.5h-94q-31 0 -48.5 -24.5t-17.5 -63.5v-270q0 -39 17.5 -63.5t48.5 -24.5h94q31 0 48.5 24.5t17.5 63.5z" />
    <glyph glyph-name="guilsinglleft" unicode="&#x2039;" horiz-adv-x="632" 
d="M530 176h-204l-224 361l224 358h204l-223 -358z" />
    <glyph glyph-name="guilsinglright" unicode="&#x203a;" horiz-adv-x="620" 
d="M528 539l-221 -361h-205l224 361l-224 358h205z" />
    <glyph glyph-name="fraction" unicode="&#x2044;" horiz-adv-x="1320" 
d="M1128 1214l-718 -1036q-50 -69 -50 -115v-73h-165v141l720 1053q48 68 48 114v74h165v-158z" />
    <glyph glyph-name="Euro" unicode="&#x20ac;" 
d="M1133 164l-238 -174h-315q-103 0 -181.5 33t-125.5 91.5t-70 132t-23 161.5v55h-133v137h133v143h-133v140h133v69q0 88 23.5 162t70 132.5t125 92t181.5 33.5h315l238 -174v-199h-215v52q0 61 -44 99t-110 38h-152q-106 0 -154 -68.5t-48 -183.5v-53h424v-140h-424v-143
h288v-137h-288v-37q0 -115 48 -183.5t154 -68.5h152q66 0 110 37.5t44 99.5v49h215v-196z" />
    <glyph glyph-name="trademark" unicode="&#x2122;" horiz-adv-x="1585" 
d="M1421 666h-135v356h-8l-104 -180q-27 -46 -27 -84v-27h-135v27q0 38 -27 84l-104 180h-9v-356h-135v696h144v-47q0 -43 28 -92l172 -291l168 291q29 52 31 92v47h141v-696zM686 1249h-190v-583h-144v583h-188v113h522v-113z" />
    <glyph glyph-name="partialdiff" unicode="&#x2202;" horiz-adv-x="1140" 
d="M1018 981v-639q0 -142 -91.5 -247t-240.5 -105h-223q-154 0 -247 104.5t-93 247.5v291q0 90 39.5 168.5t119.5 130t185 51.5h184q99 0 148 -43q0 84 -8.5 138.5t-32.5 98t-70 63.5t-117 20h-245v174h231q461 0 461 -453zM795 354v301q0 164 -172 164h-111
q-78 0 -122 -57.5t-44 -147.5v-258q0 -90 44 -146t122 -56h117q78 0 122 55.5t44 144.5z" />
    <glyph glyph-name="product" unicode="&#x220f;" 
d="M1085 1186h-157v-1186h-180v1186h-314v-1186h-180v1186h-160v176h991v-176z" />
    <glyph glyph-name="summation" unicode="&#x2211;" horiz-adv-x="1183" 
d="M1051 0h-918v289l475 391l-475 391v291h918v-176h-666v-68l453 -377v-120l-453 -377v-70h666v-174z" />
    <glyph glyph-name="minus" unicode="&#x2212;" 
d="M965 502h-756v174h756v-174z" />
    <glyph glyph-name="radical" unicode="&#x221a;" 
d="M1108 973l-389 -973h-193l-219 502h-194v174h327l178 -453l281 750h209z" />
    <glyph glyph-name="infinity" unicode="&#x221e;" horiz-adv-x="1208" 
d="M1085 631q0 -65 -55.5 -116.5t-132.5 -51.5h-172q-74 0 -121 53q-53 -53 -121 -53h-170q-78 0 -134 51.5t-56 116.5v131q0 65 56 116.5t134 51.5h170q65 0 121 -56q53 56 121 56h172q77 0 132.5 -51.5t55.5 -116.5v-131zM913 655v70q0 31 -18 52.5t-51 21.5h-86
q-38 0 -53 -26.5t-15 -61.5v-29q0 -88 68 -88h76q34 0 56.5 15t22.5 46zM518 680v31q0 36 -16.5 62t-50.5 26h-84q-70 0 -70 -74v-57q0 -74 70 -74h84q34 0 50.5 26t16.5 60z" />
    <glyph glyph-name="integral" unicode="&#x222b;" horiz-adv-x="972" 
d="M381 -72v1456l233 265h277v-170h-143q-61 0 -109.5 -56t-48.5 -123v-1456l-234 -264h-274v170h143q61 0 108.5 55.5t47.5 122.5z" />
    <glyph glyph-name="approxequal" unicode="&#x2248;" horiz-adv-x="1243" 
d="M1120 780l-188 -157h-150q-43 1 -82 20t-68 46.5t-56 54.5t-55.5 46t-55.5 19h-25q-40 0 -67 -29.5t-27 -72.5v-70h-180v156l188 155h150q42 0 81 -19t68 -46.5t55.5 -55t55.5 -46.5t57 -19h25q40 0 67 29.5t27 72.5v70h180v-154zM1120 377l-188 -158h-150
q-43 0 -82 19.5t-68 46.5t-56 54.5t-55.5 47t-55.5 19.5h-25q-40 0 -67 -30t-27 -73v-70h-180v156l188 156h150q42 0 81 -19.5t68 -46.5t55.5 -54.5t55.5 -47t57 -19.5h25q40 0 67 30t27 73v69h180v-153z" />
    <glyph glyph-name="notequal" unicode="&#x2260;" 
d="M733 1044h182l-116 -225h162v-160h-244l-74 -141h318v-160h-400l-112 -217h-187l113 217h-162v160h246l73 141h-319v160h401z" />
    <glyph glyph-name="lessequal" unicode="&#x2264;" horiz-adv-x="1050" 
d="M901 276l-754 252v185l754 252v-191l-536 -153l536 -154v-191zM903 0h-756v158h756v-158z" />
    <glyph glyph-name="greaterequal" unicode="&#x2265;" horiz-adv-x="1050" 
d="M903 528l-753 -252v191l536 154l-536 153v191l753 -252v-185zM903 0h-756v158h756v-158z" />
    <glyph glyph-name="lozenge" unicode="&#x25ca;" horiz-adv-x="1142" 
d="M1020 680l-449 -711l-448 711l448 709zM836 678l-265 438l-266 -438l266 -438z" />
    <glyph glyph-name="fi" unicode="&#xfb01;" horiz-adv-x="1204" 
d="M1055 0h-226v811h-360v-811h-223v811h-221v162h221v162q0 35 7.5 72t28 79t52 74t85 53t122.5 21h483v-172h-442q-59 0 -86 -43.5t-27 -110.5v-135h586v-973z" />
    <glyph glyph-name="fl" unicode="&#xfb02;" horiz-adv-x="1204" 
d="M829 0v1262h-247q-59 0 -86 -43.5t-27 -110.5v-135h190l-26 -162h-164v-811h-223v811h-221v162h221v162q0 35 7.5 72t28 79t52 74t85 53t122.5 21h514v-1434h-226z" />
    </font>
</defs>
</svg>
