<svg xmlns="http://www.w3.org/2000/svg"><defs><font horiz-adv-x="1175"><font-face ascent="1536" bbox="-231 -430 2173 1731" cap-height="1362" descent="-512" panose-1="2 11 5 6 0 0 0 2 0 4" underline-position="-312" underline-thickness="40" unicode-range="U+0020-FB02" units-per-em="2048" x-height="973"/><missing-glyph horiz-adv-x="512"/><glyph glyph-name=".notdef" horiz-adv-x="512"/><glyph glyph-name=".null" horiz-adv-x="0"/><glyph glyph-name="nonmarkingreturn" horiz-adv-x="682"/><glyph glyph-name="space" horiz-adv-x="512" unicode="&#x20;"/><glyph d="M430 1362v-447l-45-499h-197l-45 499v447h287zM430 0h-287v287h287v-287z" glyph-name="exclam" horiz-adv-x="573" unicode="&#x21;"/><glyph d="M670 928h-238v434h238v-434zM338 928h-236v434h236v-434z" glyph-name="quotedbl" horiz-adv-x="772" unicode="&#x22;"/><glyph d="M1165 999l-32-188h-226l-49-266h225l-30-189h-226l-65-356h-189l66 356h-197l-65-356h-189l66 356h-244l31 189h244l49 266h-244l31 188h244l63 363h190l-65-363h197l63 363h191l-66-363h227zM719 811h-197l-49-266h197z" glyph-name="numbersign" unicode="&#x23;"/><glyph d="M649-195h-108v185h-230l-219 160v239h273v-67q0-55 45.5-87t95.5-32h35v389l-203 45q-118 25-178 97t-60 171v174q0 120 86 206.5t238 86.5h117v174h108v-174h197l223-160v-239h-272v59q0 56-33 93.5t-90 37.5h-25v-342l172-37q145-31 204.5-104t59.5-193v-215q0-109-95-195.5t-245-86.5h-96v-185zM690 561l-41 8v-366q61 0 105.5 30.5t44.5 81.5v125q0 50-30 80.5t-79 40.5zM387 963q0-40 23-66.5t59-34.5l72-16v317h-33q-121 0-121-100v-100z" glyph-name="dollar" unicode="&#x24;"/><glyph d="M707 870q0-83-53-134.5t-134-51.5h-184q-83 0-138 51.5t-55 134.5v306q0 82 55 134t138 52h184q80 0 133.5-52t53.5-134v-306zM522 893v260q0 80-55 80h-84q-55 0-55-80v-260q0-80 55-80h84q55 0 55 80zM1298 1206l-706-1038q-43-61-43-109v-79h-189v159l709 1055q41 58 41 109v79h188v-176zM1520 186q0-83-53-134.5t-134-51.5h-184q-83 0-138 51.5t-55 134.5v306q0 82 55 134t138 52h184q80 0 133.5-52t53.5-134v-306zM1335 209v260q0 80-55 80h-84q-55 0-55-80v-260q0-80 55-80h84q55 0 55 80z" glyph-name="percent" horiz-adv-x="1662" unicode="&#x25;"/><glyph d="M1362 0h-193l-170 168-170-178h-356q-138 0-223.5 83.5t-85.5 217.5v246q0 87 52.5 148t143.5 108q-65 58-89.5 107t-24.5 126v113q0 104 91.5 168.5t227.5 64.5h353l221-176v-213h-283v74q0 54-32 83t-91 29h-104q-101 0-101-84v-59q0-32 8.5-51t32.5-43l422-412 178 195h193v-160l-193-207 193-188v-160zM819 340l-303 293q-40-24-57-52.5t-17-86.5v-170q0-53 29-90t78-37h98q38 0 84 53z" glyph-name="ampersand" horiz-adv-x="1484" unicode="&#x26;"/><glyph d="M338 928h-236v434h236v-434z" glyph-name="quotesingle" horiz-adv-x="403" unicode="&#x27;"/><glyph d="M705-420h-306l-235 266v1536l235 267h306v-195h-164q-50 0-88.5-49t-38.5-109v-1364q0-59 38.5-107t88.5-48h164v-197z" glyph-name="parenleft" horiz-adv-x="663" unicode="&#x28;"/><glyph d="M264-420h-305v197h164q50 0 88.5 48t38.5 107v1364q0 60-38.5 109t-88.5 49h-164v195h305l236-267v-1536z" glyph-name="parenright" horiz-adv-x="663" unicode="&#x29;"/><glyph d="M836 1120l-236-61 152-191-166-118-125 192-125-192-166 118 154 191-236 61 51 178 228-86-15 232h219l-16-234 227 88z" glyph-name="asterisk" horiz-adv-x="921" unicode="&#x2a;"/><glyph d="M983 485h-278v-292h-234v292h-278v199h278v289h234v-289h278v-199z" glyph-name="plus" unicode="&#x2b;"/><glyph d="M420 293l-78-490h-219v490h297z" glyph-name="comma" horiz-adv-x="522" unicode="&#x2c;"/><glyph d="M805 481h-682v207h682v-207z" glyph-name="hyphen" horiz-adv-x="927" unicode="&#x2d;"/><glyph d="M434 0h-311v293h311v-293z" glyph-name="period" horiz-adv-x="557" unicode="&#x2e;"/><glyph d="M881 1198l-459-930-16.5-33t-16.5-34-11.5-28-11-32.5-5.5-29-3-35.5v-76h-235v152l461 942q61 124 61 190v78h236v-164z" glyph-name="slash" horiz-adv-x="1003" unicode="&#x2f;"/><glyph d="M1069 989v-629q0-164-92.5-267t-257.5-103h-262q-167 0-259 103t-92 267v629q0 72 23.5 138t67 119 115 84.5 159.5 31.5h231q88 0 159.5-31.5t116-84.5 68-119 23.5-138zM784 424v502q0 103-27.5 157t-92.5 54h-152q-125 0-125-211v-502q0-209 125-209h152q65 0 92.5 53.5t27.5 155.5z" glyph-name="zero" unicode="&#x30;"/><glyph d="M137 0v231h344v826l-344-72v236l443 120h182v-1110h342v-231h-967z" glyph-name="one" unicode="&#x31;"/><glyph d="M137 0v193q0 54 27.5 100t95.5 108l432 398q35 32 51.5 59t16.5 62v116q0 45-30.5 73t-78.5 28h-129q-47 0-77.5-28.5t-30.5-78.5v-129h-281v184q0 111 82 194t209 83h307q309 0 309-318v-272l-546-512v-29h313v109h274v-340h-944z" glyph-name="two" unicode="&#x32;"/><glyph d="M1026 1341v-249l-309-269h53q129 0 212-72.5t83-224.5v-225q0-122-94-216.5t-205-94.5h-358q-120 0-205.5 77.5t-85.5 182.5v125h282v-82q3-35 24.5-56.5t51.5-21.5h191q59 0 88.5 42t29.5 110v139q0 51-29.5 83t-78.5 32h-287v194l328 285v26h-281v-104h-280v319h870z" glyph-name="three" unicode="&#x33;"/><glyph d="M1006 0h-281v254h-653v254l567 833h307l-569-833v-29h348v293l149 201h132v-494h116v-225h-116v-254z" glyph-name="four" unicode="&#x34;"/><glyph d="M1061 625v-297q0-65-18.5-123t-56.5-107.5-104.5-78.5-154.5-29h-262q-134 0-227 77.5t-93 200.5v127h281v-88q0-39 30.5-65.5t69.5-26.5h146q51 0 79.5 39t28.5 100v211q0 142-108 142h-140q-48 0-77.5-34t-40.5-89h-256v757h848v-219h-568v-270l101 78h211q149 0 230-86t81-219z" glyph-name="five" unicode="&#x35;"/><glyph d="M1061 592v-244q0-66-18.5-126.5t-56.5-114-105.5-85.5-155.5-32h-252q-148 0-244 99t-96 247v622q0 83 20 153.5t60.5 128 110.5 90 163 32.5h261q128 0 211-83.5t83-191.5v-79h-276v55q0 32-26 53t-74 21h-131q-121 0-121-168v-154l84 64h241q143 0 232.5-83t89.5-204zM780 354v172q0 140-108 140h-158q-45 0-72.5-38.5t-27.5-105.5v-182q0-59 36-92t82-33h138q51 0 80.5 40t29.5 99z" glyph-name="six" unicode="&#x36;"/><glyph d="M113 1014v327h960v-323l-473-846v-172h-299v213l479 840v65h-393v-104h-274z" glyph-name="seven" unicode="&#x37;"/><glyph d="M1069 498v-205q0-129-95.5-216t-240.5-87h-291q-146 0-241 87t-95 216v205q0 76 56 138t121 79q-59 14-105.5 78t-46.5 133v159q0 118 95.5 197.5t242.5 79.5h238q146 0 240.5-79.5t94.5-197.5v-159q0-68-46.5-131.5t-104.5-77.5q61-17 119.5-81t58.5-138zM784 322v145q0 53-35 88t-77 35h-168q-42 0-77.5-35t-35.5-88v-145q0-44 35.5-75.5t77.5-31.5h168q40 0 76 31.5t36 75.5zM762 918v106q0 47-28.5 80t-74.5 33h-143q-46 0-74-33t-28-80v-106q0-53 28.5-85t73.5-32h143q46 0 74.5 31.5t28.5 85.5z" glyph-name="eight" unicode="&#x38;"/><glyph d="M113 760v244q0 69 18.5 130t56.5 113.5 105.5 83.5 155.5 31h251q148 0 244-99t96-247v-623q0-83-20-153.5t-60.5-127.5-110.5-89.5-163-32.5h-260q-128 0-211.5 83t-83.5 191v60h277v-35q0-32 26-53t74-21h131q121 0 121 168v154l-84-64h-234q-144 0-236.5 83t-92.5 204zM393 997v-172q0-139 109-139h157q45 0 73 38.5t28 104.5v183q0 59-36.5 92t-82.5 33h-137q-51 0-81-40.5t-30-99.5z" glyph-name="nine" horiz-adv-x="1173" unicode="&#x39;"/><glyph d="M434 680h-311v293h311v-293zM434 0h-311v293h311v-293z" glyph-name="colon" horiz-adv-x="557" unicode="&#x3a;"/><glyph d="M434 700h-311v273h311v-273zM420 293l-78-490h-219v490h297z" glyph-name="semicolon" horiz-adv-x="489" unicode="&#x3b;"/><glyph d="M971 129l-764 358v195l764 358v-245l-490-211 490-209v-246z" glyph-name="less" unicode="&#x3c;"/><glyph d="M973 643h-770v186h770v-186zM973 342h-770v186h770v-186z" glyph-name="equal" unicode="&#x3d;"/><glyph d="M969 487l-764-358v246l489 209-489 211v245l764-358v-195z" glyph-name="greater" unicode="&#x3e;"/><glyph d="M1073 805l-358-217v-172h-289v260l315 192q50 28 50 88v101q0 47-24 71.5t-67 24.5h-196q-52 0-75-21t-23-71v-94h-283v131q0 123 86.5 198.5t236.5 75.5h273q180 0 267-82t87-221v-264zM715 0h-289v287h289v-287z" glyph-name="question" horiz-adv-x="1196" unicode="&#x3f;"/><glyph d="M1634 967v-490q0-128-68.5-205t-174.5-77h-242l-64 81-88-81h-223q-97 0-170.5 63.5t-73.5 155.5v303q0 109 70.5 175t187.5 66h181l55-55q0 2 11.5 24t11.5 23h182v-573h129q16 0 25.5 29t9.5 67v449q0 256-236 256h-539q-122 0-187.5-81.5t-65.5-215.5v-637q0-124 68-193t185-69h715v-185h-737q-93 0-176.5 25t-150.5 74.5-106.5 130.5-39.5 184v715q0 124 68.5 226t172 156 214.5 54h593q128 0 231.5-44t167.5-135 64-216zM999 492v196q0 46-17 71t-46 25h-94q-34 0-55-25.5t-21-62.5v-247q0-35 22.5-55.5t51.5-20.5h75q38 0 61 35.5t23 83.5z" glyph-name="at" horiz-adv-x="1755" unicode="&#x40;"/><glyph d="M1253 0h-301v82q0 115-39 217l-30 68h-455l-25-68q-43-116-43-217v-82h-299v172l433 1145v45h329v-47l430-1147v-168zM805 596l-139 426h-17l-143-426h299z" glyph-name="A" horiz-adv-x="1314" unicode="&#x41;"/><glyph d="M1194 494v-164q0-92-52.5-169t-136-119-176.5-42h-665v1362h581q173 0 276-86.5t103-216.5v-123q0-72-38.5-124.5t-94.5-74.5v-10q77-16 140-77t63-156zM895 352v125q0 47-35 80t-98 33h-303v-365h309q49 0 88 35t39 92zM836 938v94q0 48-30 76.5t-85 28.5h-262v-334h260q52 0 84.5 40t32.5 95z" glyph-name="B" horiz-adv-x="1296" unicode="&#x42;"/><glyph d="M1208 184l-260-194h-356q-147 0-255.5 62t-161 162.5-52.5 223.5v486q0 123 52.5 223.5t161 162.5 255.5 62h356l260-194v-207h-295v61q0 49-36 82t-89 33h-176q-94 0-144-67t-50-173v-452q0-106 50-173t144-67h176q54 0 89.5 32.5t35.5 82.5v61h295v-207z" glyph-name="C" horiz-adv-x="1286" unicode="&#x43;"/><glyph d="M1266 883v-404q0-205-131-342t-347-137h-624v1362h624q216 0 347-137t131-342zM971 487v387q0 120-50.5 190.5t-156.5 70.5h-305v-908h305q106 0 156.5 70t50.5 190z" glyph-name="D" horiz-adv-x="1388" unicode="&#x44;"/><glyph d="M1141 0h-977v1362h960v-227h-665v-326h545v-227h-545v-355h682v-227z" glyph-name="E" horiz-adv-x="1206" unicode="&#x45;"/><glyph d="M1106 1135h-647v-326h542v-227h-542v-582h-295v1362h942v-227z" glyph-name="F" horiz-adv-x="1167" unicode="&#x46;"/><glyph d="M1006 0l-19 115-153-125h-252q-90 0-165.5 23.5t-129 64.5-91 97.5-55.5 123-18 139.5v486q0 123 54.5 223.5t164 162.5 256.5 62h387l262-194v-207h-295v61q0 49-36 82t-89 33h-209q-96 0-148-67t-52-173v-452q0-108 44-174t136-66h182q79 0 125.5 44.5t46.5 107.5v141h-247v229h542v-737h-241z" glyph-name="G" horiz-adv-x="1370" unicode="&#x47;"/><glyph d="M1249 0h-295v567h-495v-567h-295v1362h295v-565h495v565h295v-1362z" glyph-name="H" horiz-adv-x="1413" unicode="&#x48;"/><glyph d="M475 0h-295v1362h295v-1362z" glyph-name="I" horiz-adv-x="655" unicode="&#x49;"/><glyph d="M786 244l-270-244h-455v225h258q63 0 118 60t55 129v948h294v-1118z" glyph-name="J" horiz-adv-x="950" unicode="&#x4a;"/><glyph d="M1204 0h-295v96q0 45-5.5 67.5t-24.5 47.5l-281 375-139-146v-440h-295v1362h295v-553h18l352 377q21 21 39.5 59.5t18.5 59.5v57h293v-154l-387-413 411-574v-221z" glyph-name="K" horiz-adv-x="1286" unicode="&#x4b;"/><glyph d="M1085 0h-921v1362h295v-1135h626v-227z" glyph-name="L" horiz-adv-x="1116" unicode="&#x4c;"/><glyph d="M1540 0h-274v754h-21l-209-398q-43-85-43-178v-61h-280v61q0 92-45 178l-209 398h-21v-754h-274v1362h301v-47q0-51 6.5-86t28.5-76l338-645h26l340 645q22 41 28.5 75.5t6.5 86.5v47h301v-1362z" glyph-name="M" horiz-adv-x="1703" unicode="&#x4d;"/><glyph d="M1249 0h-291v59q0 54-15 92.5t-48 81.5l-442 582h-17v-815h-272v1362h291v-59q0-54 15.5-93t49.5-82l438-571h19v805h272v-1362z" glyph-name="N" horiz-adv-x="1413" unicode="&#x4e;"/><glyph d="M1284 944v-526q0-185-132.5-306.5t-348.5-121.5h-197q-216 0-349.5 121.5t-133.5 306.5v526q0 185 133.5 306.5t349.5 121.5h197q216 0 348.5-121.5t132.5-306.5zM989 455v452q0 106-52.5 173t-148.5 67h-170q-96 0-148-67t-52-173v-452q0-106 52-173t148-67h170q96 0 148.5 67t52.5 173z" glyph-name="O" horiz-adv-x="1406" unicode="&#x4f;"/><glyph d="M1157 1004v-170q0-101-61-186.5t-152.5-131-187.5-45.5h-297v-471h-295v1362h569q113 0 208.5-41.5t155.5-124.5 60-192zM862 848v143q0 70-42 108t-118 38h-243v-443h270q53 0 93 44t40 110z" glyph-name="P" horiz-adv-x="1239" unicode="&#x50;"/><glyph d="M1282 231l-231-190 270-315h-340l-236 264h-141q-112 0-203.5 35.5t-152 96.5-93 142-32.5 174v486q0 91 33 172t93 142.5 152 97.5 203 36h199q110 0 201.5-36t151.5-97.5 93-142.5 33-172v-693zM987 326v581q0 107-50 173.5t-146 66.5h-175q-96 0-147-67t-51-173v-452q0-98 54.5-169t143.5-71h240z" glyph-name="Q" horiz-adv-x="1404" unicode="&#x51;"/><glyph d="M1204 0h-295v76q0 50-7.5 80t-29.5 59l-237 322h-176v-537h-295v1362h573q189 0 304.5-92.5t115.5-241.5v-162q0-86-65-157t-162-113l274-375v-221zM860 891v123q0 121-164 121h-237v-373h274q48 0 87.5 37.5t39.5 91.5z" glyph-name="R" horiz-adv-x="1286" unicode="&#x52;"/><glyph d="M1108 469v-197q0-109-95-195.5t-245-86.5h-446l-220 160v219h273v-56q0-54 44.5-82t96.5-28h156q58 0 101.5 30.5t43.5 81.5v125q0 100-108 123l-361 72q-119 24-178 101t-59 196v141q0 127 85 213t238 86h434l224-166v-217h-273v49q0 55-33 90t-90 35h-174q-121 0-121-100v-100q0-40 26.5-70.5t61.5-36.5l355-70q145-28 204.5-105t59.5-212z" glyph-name="S" horiz-adv-x="1210" unicode="&#x53;"/><glyph d="M1081 1137h-372v-1137h-295v1137h-373v225h1040v-225z" glyph-name="T" horiz-adv-x="1122" unicode="&#x54;"/><glyph d="M1249 1362v-942q0-182-120.5-306t-313.5-124h-217q-193 0-313.5 124t-120.5 306v942h295v-938q0-93 45.5-151t116.5-58h172q71 0 116 58t45 151v938h295z" glyph-name="U" horiz-adv-x="1413" unicode="&#x55;"/><glyph d="M1253 1174l-448-1115v-59h-293v59l-451 1110v193h295v-78q0-97 37-190l250-674h27l250 674q36 91 36 190v78h297v-188z" glyph-name="V" horiz-adv-x="1314" unicode="&#x56;"/><glyph d="M1802 1217l-348-1156v-61h-289v61l-217 715h-10l-217-713v-63h-289v61l-350 1156v145h291v-78q0-146 33-260l174-606h14l151 493q56 176 56 314v137h282v-137q0-123 58-314l149-493h13l174 610q34 115 34 256v78h291v-145z" glyph-name="W" horiz-adv-x="1884" unicode="&#x57;"/><glyph d="M1188 0h-301v92q0 26-11 54t-20.5 42.5-30.5 42.5l-188 244h-16l-187-244q-63-81-63-133v-98h-299v199l370 485v23l-352 458v197h301v-94q0-36 14-63t52-75l164-210h16l166 210q37 47 51 74.5t14 63.5v94h299v-193l-350-467v-22l371-485v-195z" glyph-name="X" horiz-adv-x="1259" unicode="&#x58;"/><glyph d="M1167 1174l-409-705v-469h-295v469l-412 700v193h299v-98q0-63 45-146l203-373h25l204 371q25 48 33 78t8 70v98h299v-188z" glyph-name="Y" horiz-adv-x="1218" unicode="&#x59;"/><glyph d="M1118 0h-1040v319l696 773v43h-686v227h1002v-320l-695-772v-43h723v-227z" glyph-name="Z" horiz-adv-x="1196" unicode="&#x5a;"/><glyph d="M610-420h-446v2069h446v-195h-196v-1677h196v-197z" glyph-name="bracketleft" horiz-adv-x="569" unicode="&#x5b;"/><glyph d="M578 268l-459 930v164h235v-78q0-64 62-190l461-942v-152h-236v76q0 15-1 28.5t-5.5 29-7 24.5-10.5 27.5-10.5 24.5-14 29.5-14.5 28.5z" glyph-name="backslash" horiz-adv-x="1017" unicode="&#x5c;"/><glyph d="M406-420h-447v197h197v1677h-197v195h447v-2069z" glyph-name="bracketright" horiz-adv-x="569" unicode="&#x5d;"/><glyph d="M0 817l289 547h194l289-547h-246l-141 293-139-293h-246z" glyph-name="asciicircum" horiz-adv-x="765" unicode="&#x5e;"/><glyph d="M1102-219h-998v188h998v-188z" glyph-name="underscore" horiz-adv-x="1153" unicode="&#x5f;"/><glyph d="M510 1085h-203l-246 215h299z" glyph-name="grave" horiz-adv-x="571" unicode="&#x60;"/><glyph d="M1034 0h-190l-74 90-125-100h-266q-127 0-207 76.5t-80 195.5v105q0 107 82.5 171t194.5 64h317v94q0 46-20 70.5t-56 24.5h-139q-54 0-59-39l-4-29h-269v147l185 113h342q130 0 216.5-73.5t86.5-194.5v-492l65-84v-139zM686 346v80h-219q-30 0-62-21.5t-32-68.5v-55q0-44 26-73.5t64-29.5h94q63 0 96 45.5t33 122.5z" glyph-name="a" horiz-adv-x="1116" unicode="&#x61;"/><glyph d="M1071 629v-291q0-86-35-164t-109-131-173-53h-168q-55 0-113 36t-72 76l-12-102h-246v1434h283v-551q52 100 168 100h156q154 0 237.5-95.5t83.5-258.5zM788 350v256q0 85-29 129.5t-81 44.5h-115q-61 0-100-48.5t-39-119.5v-280q0-57 43.5-98t89.5-41h107q56 0 90 47t34 110z" glyph-name="b" horiz-adv-x="1181" unicode="&#x62;"/><glyph d="M995 152l-209-162h-297q-158 0-268 101t-110 231v329q0 132 100.5 232t257.5 100h317l209-162v-178h-282v35q0 42-30 75t-67 33h-94q-62 0-95.5-47t-33.5-118v-269q0-71 33.5-118.5t95.5-47.5h94q37 0 67 33.5t30 75.5v35h282v-178z" glyph-name="c" horiz-adv-x="1087" unicode="&#x63;"/><glyph d="M1038 0h-282v80l-127-90h-197q-154 0-237.5 94.5t-83.5 253.5v295q0 87 35 165t109 131.5 173 53.5h231l97-68v519h282v-1434zM758 352v287q0 58-43.5 99.5t-89.5 41.5h-105q-58 0-92.5-47t-34.5-112v-252q0-86 29-131t80-45h116q60 0 100 46.5t40 112.5z" glyph-name="d" horiz-adv-x="1181" unicode="&#x64;"/><glyph d="M995 631v-207h-602v-72q0-66 34.5-118t88.5-52h100q55 0 81 23.5t26 73.5v18h272v-156l-198-151h-314q-158 0-265 100.5t-107 231.5v301q0 68 23 131.5t65.5 115 110 82.5 149.5 31h217q139 0 229-102t90-250zM721 598q0 97-22 145t-78 48h-123q-56 0-80.5-54.5t-24.5-138.5h328z" glyph-name="e" horiz-adv-x="1105" unicode="&#x65;"/><glyph d="M752 1225h-154q-46 0-71-31.5t-25-85.5v-135h235v-201h-235v-772h-283v772h-209v201h209v153q0 37 8 75t30 81 56 76 92 54.5 132 21.5h215v-209z" glyph-name="f" horiz-adv-x="772" unicode="&#x66;"/><glyph d="M987 717v-119q0-52-16.5-97.5t-52-85.5-101-63.5-153.5-23.5h-205l-45-37q-8-5-8-21v-24q0-21 20-21h332q144 0 228.5-61.5t84.5-181.5v-162q0-107-93.5-178.5t-242.5-71.5h-469l-184 160v221h266v-115q0-40 20.5-60t55.5-20h291q41 0 63.5 23.5t22.5 66.5v105q0 78-80 78h-369q-95 0-151 38t-56 115v129l97 78q-52 25-86.5 80.5t-34.5 128.5v119q0 118 75.5 192t245.5 74h209q70 0 111-10t84-33l53 43h219v-219h-135q4-16 4-47zM717 610v95q0 90-101 90h-122q-103 0-103-90v-95q0-94 103-94h122q101 0 101 94z" glyph-name="g" horiz-adv-x="1138" unicode="&#x67;"/><glyph d="M1030 627v-627h-282v649q0 71-30.5 101t-72.5 30h-70q-57 0-103-49.5t-46-124.5v-606h-283v1434h283v-551l113 100h209q73 0 126-20t82.5-51.5 46.5-81 22-95 5-108.5z" glyph-name="h" horiz-adv-x="1173" unicode="&#x68;"/><glyph d="M438 1135h-282v227h282v-227zM438 0h-282v973h282v-973z" glyph-name="i" horiz-adv-x="593" unicode="&#x69;"/><glyph d="M420 1135h-283v227h283v-227zM420-223l-227-197h-295v219h129q51 0 80.5 40t29.5 102v1032h283v-1196z" glyph-name="j" horiz-adv-x="563" unicode="&#x6a;"/><glyph d="M1030 0h-282v51q0 56-12 88t-36 60l-182 223-92-90v-332h-283v1434h283v-797l246 240q36 36 39 96h274v-123l-283-260 328-404v-186z" glyph-name="k" horiz-adv-x="1081" unicode="&#x6b;"/><glyph d="M438 0h-282v1434h282v-1434z" glyph-name="l" horiz-adv-x="593" unicode="&#x6c;"/><glyph d="M1495 639v-639h-283v664q0 53-17.5 84.5t-51.5 31.5h-60q-45 0-88-52.5t-43-129.5v-598h-270v664q0 53-19 84.5t-55 31.5h-61q-43 0-82-52.5t-39-129.5v-598h-283v973h217l11-107h12l113 117h200q134 0 187-117h14l113 117h219q52 0 93-10t69-25.5 47.5-42.5 30.5-53 17-65 7.5-70.5 1.5-77.5z" glyph-name="m" horiz-adv-x="1638" unicode="&#x6d;"/><glyph d="M1030 627v-627h-282v649q0 71-30.5 101t-72.5 30h-70q-58 0-103.5-51.5t-45.5-130.5v-598h-283v973h217l13-107h18l129 117h228q73 0 126-20t82.5-51.5 46.5-81 22-95 5-108.5z" glyph-name="n" horiz-adv-x="1173" unicode="&#x6e;"/><glyph d="M1034 635v-297q0-92-41.5-170.5t-123.5-128-189-49.5h-217q-158 0-255 102.5t-97 245.5v297q0 143 97 245.5t255 102.5h217q107 0 189-49.5t123.5-128 41.5-170.5zM752 356v260q0 73-36 118.5t-95 45.5h-97q-59 0-95-45.5t-36-118.5v-260q0-73 36-118t95-45h97q59 0 95 45t36 118z" glyph-name="o" horiz-adv-x="1144" unicode="&#x6f;"/><glyph d="M1071 629v-289q0-87-35-165t-109-131.5-173-53.5h-168q-40 0-93.5 29t-66.5 59v-500h-283v1395h228l18-99q27 50 84 79.5t121 29.5h156q154 0 237.5-95.5t83.5-258.5zM788 352v254q0 85-29 129.5t-81 44.5h-115q-61 0-100-48.5t-39-119.5v-278q0-58 43.5-99.5t89.5-41.5h107q56 0 90 47t34 112z" glyph-name="p" horiz-adv-x="1181" unicode="&#x70;"/><glyph d="M756-426v506l-127-90h-197q-154 0-237.5 94.5t-83.5 253.5v295q0 87 35 165t109 131.5 173 53.5h231l105-74 20 64h254v-1282zM758 352v287q0 58-43.5 99.5t-89.5 41.5h-105q-58 0-92.5-47t-34.5-112v-250q0-87 29-132.5t80-45.5h116q60 0 100 46.5t40 112.5z" glyph-name="q" horiz-adv-x="1181" unicode="&#x71;"/><glyph d="M723 696h-150q-78 0-112.5-45.5t-34.5-154.5v-496h-283v973h228l43-133 151 143h158v-287z" glyph-name="r" horiz-adv-x="743" unicode="&#x72;"/><glyph d="M954 332v-103q0-88-80-163.5t-198-75.5h-393l-181 160v155h265l6-45q6-39 31.5-61.5t58.5-22.5h121q94 0 94 66v51q0 36-19.5 54.5t-66.5 29.5l-240 55q-241 55-241 225v99q0 105 79.5 166t202.5 61h363l180-160v-149h-260l-8 45q-14 78-90 78h-121q-34 0-56-16.5t-22-47.5v-39q0-21 18.5-37t48.5-24l279-68q122-29 175.5-84t53.5-149z" glyph-name="s" horiz-adv-x="1056" unicode="&#x73;"/><glyph d="M754 0h-265q-274 0-274 293v479h-195v201h195v260l283 57v-317h256v-201h-256v-448q0-113 88-113h168v-211z" glyph-name="t" horiz-adv-x="794" unicode="&#x74;"/><glyph d="M143 346v627h283v-649q0-71 30-101t72-30h70q58 0 104 51.5t46 130.5v598h282v-973h-217l-12 106h-19l-129-116h-227q-73 0-126 20t-83 51.5-47 80.5-22 95.5-5 108.5z" glyph-name="u" horiz-adv-x="1173" unicode="&#x75;"/><glyph d="M1010 829l-328-794v-35h-272v35l-328 792v146h283v-51q0-106 49-232l123-321h20l123 321q47 115 47 232v51h283v-144z" glyph-name="v" horiz-adv-x="1091" unicode="&#x76;"/><glyph d="M1454 840l-276-805v-35h-263v33l-135 477h-20l-137-477v-33h-263v33l-278 805v135h283v-51q0-115 34-232l90-319h21l96 340q29 104 29 186v76h268v-76q0-76 29-186l94-340h23l90 317q35 119 35 234v51h280v-133z" glyph-name="w" horiz-adv-x="1536" unicode="&#x77;"/><glyph d="M936 0h-281v63q0 20-12 51t-27 50l-106 133h-16l-115-135q-13-15-24-44t-11-48v-70h-283v145l285 328v21l-276 331v148h282v-66q0-46 39-96l103-127h12l100 125q35 45 35 98v66h283v-152l-269-309v-18l281-349v-145z" glyph-name="x" horiz-adv-x="997" unicode="&#x78;"/><glyph d="M1016 831l-473-1105-185-156h-317v219h176q72 0 123 107l74 155-326 785v137h283v-51q0-86 49-209l123-320h18l127 326q45 108 45 203v51h283v-142z" glyph-name="y" horiz-adv-x="1097" unicode="&#x79;"/><glyph d="M905 0h-815v227l455 521v22h-463v203h799v-228l-459-522v-20h483v-203z" glyph-name="z" horiz-adv-x="987" unicode="&#x7a;"/><glyph d="M850-420h-305l-236 266v564q0 56-24 81t-72 25h-90v193h90q50 0 73 26.5t23 85.5v561l236 267h305v-195h-164q-50 0-88.5-49t-38.5-109v-448q0-64-21-128.5t-59-107.5q38-43 59-107t21-128v-445q0-59 38.5-107t88.5-48h164v-197z" glyph-name="braceleft" horiz-adv-x="808" unicode="&#x7b;"/><glyph d="M395-123h-190v1639h190v-1639z" glyph-name="bar" horiz-adv-x="600" unicode="&#x7c;"/><glyph d="M264-420h-305v197h164q50 0 88.5 48t38.5 107v445q0 64 21 128t59 107q-38 43-59 107.5t-21 128.5v448q0 60-38.5 109t-88.5 49h-164v195h305l236-267v-561q0-59 23-85.5t73-26.5h90v-193h-90q-48 0-72-25t-24-81v-564z" glyph-name="braceright" horiz-adv-x="808" unicode="&#x7d;"/><glyph d="M1167 582l-194-162h-170q-44 0-86 18.5t-74 45-61 53-58 45-53 18.5h-25q-30 0-50.5-25.5t-20.5-62.5v-80h-232v182l195 162h170q53 0 105-28.5t86-62.5 72.5-62.5 68.5-28.5h24q31 0 51.5 25.5t20.5 62.5v80h231v-180z" glyph-name="asciitilde" horiz-adv-x="1310" unicode="&#x7e;"/><glyph d="M143-389v446l45 500h197l45-500v-446h-287zM143 973h287v-287h-287v287z" glyph-name="exclamdown" horiz-adv-x="573" unicode="&#xa1;"/><glyph d="M649 0h-108v1362h108v-1362zM1057 342l-209-162h-379q-157 0-257.5 100t-100.5 232v330q0 134 91.5 233t246.5 99h399l209-162v-178h-283v34q0 43-29.5 76t-66.5 33h-156q-62 0-95.5-47.5t-33.5-118.5v-268q0-71 33.5-118.5t95.5-47.5h156q37 0 66.5 33t29.5 75v35h283v-178z" glyph-name="cent" unicode="&#xa2;"/><glyph d="M94 539v215h119v331q0 117 82 200t229 83l346 4 222-166v-227h-295v78q0 44-22.5 72t-59.5 28h-113q-43 0-70.5-22.5t-27.5-67.5v-313h293v-215h-293v-312h260q42 0 76 28t34 81v76h295v-238l-231-174h-907v227h182v312h-119z" glyph-name="sterling" unicode="&#xa3;"/><glyph d="M1079 233l-43-43-164 166q-119-98-270-98t-270 98l-164-166-43 43 164 164q-109 127-109 285 0 150 96 272l-151 154 43 43 151-152q128 109 283 109t283-109l151 152 43-43-151-154q96-126 96-272 0-154-109-285zM874 682q0 114-80 196.5t-192 82.5q-113 0-192.5-82t-79.5-197q0-113 79.5-194.5t192.5-81.5q112 0 192 81.5t80 194.5z" glyph-name="currency" horiz-adv-x="1204" unicode="&#xa4;"/><glyph d="M993 225h-235v-225h-295v225h-240v125h240v115h-240v125h168l-340 579v193h299v-98q0-63 45-146l203-373h25l204 371q25 48 33 78t8 70v98h299v-188l-340-584h166v-125h-235v-115h235v-125z" glyph-name="yen" horiz-adv-x="1218" unicode="&#xa5;"/><glyph d="M362 809h-198v707h198v-707zM362-123h-198v727h198v-727z" glyph-name="brokenbar" horiz-adv-x="526" unicode="&#xa6;"/><glyph d="M1051 340q0-121-138-209 39-58 39-104v-177q0-106-102-192t-232-86h-266l-219 176v217h248v-71q0-52 33.5-85.5t81.5-33.5h75q50 0 82.5 23t32.5 71v127q0 62-70 88l-356 137q-93 36-153 100t-60 140v164q0 123 133 206-35 56-35 105v158q0 107 100.5 192.5t229.5 85.5h260l219-176v-197h-247v52q0 53-33.5 85.5t-83.5 32.5h-68q-49 0-80.5-23t-31.5-71v-106q0-64 67-90l359-138q94-36 154.5-101t60.5-136v-164zM780 346v119q0 23-20 46t-45 34l-363 145q-37-37-37-74v-118q0-20 9-36t18-22.5 23.5-14.5 15.5-9l-2 2 364-146q37 37 37 74z" glyph-name="section" horiz-adv-x="1153" unicode="&#xa7;"/><glyph d="M670 1085h-203v197h203v-197zM336 1085h-203v197h203v-197z" glyph-name="dieresis" horiz-adv-x="802" unicode="&#xa8;"/><glyph d="M1587 455q0-212-134.5-333.5t-342.5-121.5h-471q-208 0-341.5 121.5t-133.5 333.5v454q0 212 133.5 332.5t341.5 120.5h471q208 0 342.5-120.5t134.5-332.5v-454zM1352 440v484q0 59-25 116t-76.5 97.5-117.5 40.5h-517q-96 0-157.5-80.5t-61.5-173.5v-484q0-93 61.5-173.5t157.5-80.5h517q66 0 117.5 40.5t76.5 97.5 25 116zM1202 440l-145-121h-289q-103 0-155 63.5t-52 160.5v256q0 57 20.5 108.5t71 89 123.5 37.5h281l145-121v-129h-198v31q0 37-15.5 52.5t-52.5 15.5h-100q-36 0-53-30t-17-73v-209q0-41 17.5-70.5t52.5-29.5h100q37 0 52.5 15.5t15.5 52.5v30h198v-129z" glyph-name="copyright" horiz-adv-x="1751" unicode="&#xa9;"/><glyph d="M713 760h-144l-32 43-62-49h-164q-85 0-136.5 46.5t-51.5 121.5v71q0 68 53.5 105t128.5 37h164v47q0 47-43 47h-51q-19 0-27-10t-8-33h-188v102l120 74h226q84 0 131-46.5t47-125.5v-285l37-47v-98zM469 973v41h-104q-16 0-28.5-9.5t-12.5-31.5v-41q0-20 11-33.5t25-13.5h54q27 0 41 24.5t14 63.5z" glyph-name="ordfeminine" horiz-adv-x="835" unicode="&#xaa;"/><glyph d="M1004 176h-250l-224 361 224 358h250l-224-358zM596 176h-250l-223 361 223 358h250l-223-358z" glyph-name="guillemotleft" horiz-adv-x="1126" unicode="&#xab;"/><glyph d="M979 684v-448h-240v249h-551v199h791z" glyph-name="logicalnot" unicode="&#xac;"/><glyph d="M1587 455q0-212-134.5-333.5t-342.5-121.5h-471q-208 0-341.5 121.5t-133.5 333.5v454q0 212 133.5 332.5t341.5 120.5h471q208 0 342.5-120.5t134.5-332.5v-454zM1352 440v484q0 59-25 116t-76.5 97.5-117.5 40.5h-517q-96 0-157.5-80.5t-61.5-173.5v-484q0-93 61.5-173.5t157.5-80.5h517q66 0 117.5 40.5t76.5 97.5 25 116zM1188 322h-199v65q0 59-28 90l-70 84h-111v-239h-194v712h389q104 0 158.5-52t54.5-130v-131l-113-107 113-145v-147zM989 764v65q0 24-18 41t-43 17h-148v-189h150q24 0 41.5 21t17.5 45z" glyph-name="registered" horiz-adv-x="1751" unicode="&#xae;"/><glyph d="M610 1085h-487v150h487v-150z" glyph-name="macron" horiz-adv-x="733" unicode="&#xaf;"/><glyph d="M700 1180q0-119-85-200t-203-81-203.5 82-85.5 199q0 116 85.5 197t203.5 81 203-80.5 85-197.5zM526 1178q0 47-33 80.5t-79 33.5q-47 0-81-33.5t-34-80.5 33-81 82-34q47 0 79.5 34.5t32.5 80.5z" glyph-name="degree" horiz-adv-x="823" unicode="&#xb0;"/><glyph d="M983 498h-278v-242h-234v242h-278v198h278v277h234v-277h278v-198zM983 0h-790v186h790v-186z" glyph-name="plusminus" unicode="&#xb1;"/><glyph d="M133 684v100q0 32 14.5 57.5t51.5 61.5l225 199q27 27 27 47v51q0 12-10.5 22.5t-24.5 10.5h-80q-12 0-23.5-12t-11.5-27v-70h-178v68q0 73 52 121.5t128 48.5h158q90 0 135-48.5t45-129.5v-105l-307-266h164v55h159v-184h-524z" glyph-name="twosuperior" horiz-adv-x="780" unicode="&#xb2;"/><glyph d="M283 1176h-140v186h475v-150l-129-106q68 0 109-42t41-120v-84q0-69-49-122.5t-109-53.5h-196q-67 0-114.5 44.5t-47.5 105.5v81h180v-71q0-13 9.5-23t27.5-10h72q45 0 45 61v80q0 39-54 39h-90v109l148 127h-178v-51z" glyph-name="threesuperior" horiz-adv-x="761" unicode="&#xb3;"/><glyph d="M264 1085h-203l150 215h299z" glyph-name="acute" horiz-adv-x="571" unicode="&#xb4;"/><glyph d="M143-410v1383h283v-649q0-71 30-101t72-30h70q58 0 104 51.5t46 130.5v598h282v-750l66-84v-139h-191l-74 90-124-100h-183q-60 0-98 30v-430h-283z" glyph-name="mu" horiz-adv-x="1177" unicode="&#xb5;"/><glyph d="M143-410v1383h283v-649q0-71 30-101t72-30h70q58 0 104 51.5t46 130.5v598h282v-750l66-84v-139h-191l-74 90-124-100h-183q-60 0-98 30v-430h-283z" glyph-name="mu" horiz-adv-x="1177" unicode="&#x3bc;"/><glyph d="M874-420h-192v1688h-74v-1688h-192v1370l-43-47h-191v459h692v-1782z" glyph-name="paragraph" horiz-adv-x="1083" unicode="&#xb6;"/><glyph d="M434 438h-311v293h311v-293z" glyph-name="periodcentered" horiz-adv-x="571" unicode="&#xb7;"/><glyph d="M580-283q0-52-45-89.5t-113-37.5h-162q-61 0-99 43t-38 93v38h133v-14q0-59 68-59h51q36 0 52.5 13.5t16.5 43.5v37q0 55-73 55h-189l31 164h164l-17-72h68q67 0 109.5-29.5t42.5-78.5v-107z" glyph-name="cedilla" horiz-adv-x="702" unicode="&#xb8;"/><glyph d="M123 684v133h162v377l-162-43v143l221 68h115v-545h143v-133h-479z" glyph-name="onesuperior" horiz-adv-x="724" unicode="&#xb9;"/><glyph d="M702 1145v-174q0-89-62.5-153t-164.5-64h-127q-101 0-163 64t-62 153v174q0 89 62 153t163 64h127q102 0 164.5-64t62.5-153zM498 981v154q0 35-16.5 58.5t-39.5 23.5h-59q-23 0-39-23.5t-16-58.5v-154q0-35 16-58.5t39-23.5h59q23 0 39.5 23.5t16.5 58.5z" glyph-name="ordmasculine" horiz-adv-x="825" unicode="&#xba;"/><glyph d="M1004 539l-224-361h-250l224 361-224 358h250zM594 539l-221-361h-250l223 361-223 358h250z" glyph-name="guillemotright" horiz-adv-x="1126" unicode="&#xbb;"/><glyph d="M1386 0h-172v100h-340v181l287 397h180l-301-424v-16h174v118l105 142h67v-260h64v-138h-64v-100zM143 684v133h162v377l-162-43v143l222 68h114v-545h144v-133h-480zM1274 1206l-707-1038q-43-61-43-109v-79h-188v159l708 1055q41 58 41 109v79h189v-176z" glyph-name="onequarter" horiz-adv-x="1593" unicode="&#xbc;"/><glyph d="M973 0v100q0 32 14 58t51 61l226 199q26 26 26 47v51q0 12-10 22.5t-25 10.5h-79q-12 0-23.5-12t-11.5-27v-70h-178v68q0 73 52 121.5t128 48.5h157q90 0 135.5-49t45.5-129v-105l-307-262h163v51h160v-184h-524zM143 684v133h162v377l-162-43v143l222 68h114v-545h144v-133h-480zM1274 1206l-707-1038q-43-61-43-109v-79h-188v159l708 1055q41 58 41 109v79h189v-176z" glyph-name="onehalf" horiz-adv-x="1640" unicode="&#xbd;"/><glyph d="M303 1176h-139v186h475v-150l-129-106q68 0 108.5-42t40.5-120v-84q0-69-48.5-122.5t-108.5-53.5h-197q-67 0-114.5 44.5t-47.5 105.5v81h181v-71q0-13 9-23t27-10h72q45 0 45 61v80q0 39-53 39h-90v109l147 127h-178v-51zM1479 0h-172v100h-340v181l286 397h181l-301-424v-16h174v118l104 142h68v-260h63v-138h-63v-100zM1366 1206l-707-1038q-43-61-43-109v-79h-188v159l709 1055q41 58 41 109v79h188v-176z" glyph-name="threequarters" horiz-adv-x="1685" unicode="&#xbe;"/><glyph d="M123 168l358 217v172h289v-260l-315-193q-49-27-49-88v-100q0-47 23.5-71.5t66.5-24.5h196q52 0 75.5 21t23.5 71v94h282v-131q0-123-86.5-198.5t-236.5-75.5h-273q-180 0-267 82t-87 221v264zM481 973h289v-287h-289v287z" glyph-name="questiondown" horiz-adv-x="1196" unicode="&#xbf;"/><glyph d="M1243 0h-301v82q0 115-39 217l-31 68h-454l-25-68q-43-116-43-217v-82h-299v172l432 1145v45h330v-47l430-1147v-168zM795 596l-140 426h-16l-143-426h299zM831 1475h-202l-246 215h299z" glyph-name="Agrave" horiz-adv-x="1294" unicode="&#xc0;"/><glyph d="M1243 0h-301v82q0 115-39 217l-31 68h-454l-25-68q-43-116-43-217v-82h-299v172l432 1145v45h330v-47l430-1147v-168zM795 596l-140 426h-16l-143-426h299zM625 1475h-203l149 215h299z" glyph-name="Aacute" horiz-adv-x="1294" unicode="&#xc1;"/><glyph d="M1243 0h-301v82q0 115-39 217l-31 68h-454l-25-68q-43-116-43-217v-82h-299v172l432 1145v45h330v-47l430-1147v-168zM795 596l-140 426h-16l-143-426h299zM932 1475h-189l-96 106-96-106h-191l168 215h238z" glyph-name="Acircumflex" horiz-adv-x="1294" unicode="&#xc2;"/><glyph d="M1243 0h-301v82q0 115-39 217l-31 68h-454l-25-68q-43-116-43-217v-82h-299v172l432 1145v45h330v-47l430-1147v-168zM795 596l-140 426h-16l-143-426h299zM985 1597l-143-129h-111q-29 0-55.5 13.5t-45.5 33-35.5 38.5-31 32.5-26.5 13.5h-31q-45 0-45-61v-59h-152v123l144 129h110q35 0 67.5-21t52.5-46 41-46 36-21h28q46 0 46 64v59h151v-123z" glyph-name="Atilde" horiz-adv-x="1294" unicode="&#xc3;"/><glyph d="M1243 0h-301v82q0 115-39 217l-31 68h-454l-25-68q-43-116-43-217v-82h-299v172l432 1145v45h330v-47l430-1147v-168zM795 596l-140 426h-16l-143-426h299zM915 1475h-202v196h202v-196zM582 1475h-203v196h203v-196z" glyph-name="Adieresis" horiz-adv-x="1294" unicode="&#xc4;"/><glyph d="M1243 0h-301v82q0 115-39 217l-31 68h-454l-25-68q-43-116-43-217v-82h-299v172l432 1145v45h330v-47l430-1147v-168zM795 596l-140 426h-16l-143-426h299zM911 1389q0-56-53.5-92.5t-122.5-36.5h-176q-71 0-124.5 36.5t-53.5 92.5v131q0 58 53.5 94.5t124.5 36.5h176q70 0 123-36.5t53-94.5v-131zM750 1413v84q0 19-17.5 32t-40.5 13h-90q-22 0-39.5-13t-17.5-32v-84q0-20 17.5-32.5t39.5-12.5h90q23 0 40.5 12t17.5 33z" glyph-name="Aring" horiz-adv-x="1294" unicode="&#xc5;"/><glyph d="M1710 0h-936v367h-358l-43-95q-43-96-43-211v-61h-299v172l534 1145 4 45h1125v-227h-625v-326h504v-227h-504v-355h641v-227zM739 1135l-225-539h260v539h-35z" glyph-name="AE" horiz-adv-x="1775" unicode="&#xc6;"/><glyph d="M1208 184l-260-194h-356q-147 0-255.5 62t-161 162.5-52.5 223.5v486q0 123 52.5 223.5t161 162.5 255.5 62h356l260-194v-207h-295v61q0 49-36 82t-89 33h-176q-94 0-144-67t-50-173v-452q0-106 50-173t144-67h176q54 0 89.5 32.5t35.5 82.5v61h295v-207zM938-283q0-52-45-89.5t-113-37.5h-162q-61 0-99 43t-38 93v38h133v-14q0-59 68-59h51q70 0 70 57v37q0 55-74 55h-188l30 164h164l-16-72h67q67 0 109.5-29.5t42.5-78.5v-107z" glyph-name="Ccedilla" horiz-adv-x="1286" unicode="&#xc7;"/><glyph d="M1141 0h-977v1362h960v-227h-665v-326h545v-227h-545v-355h682v-227zM793 1475h-203l-246 215h299z" glyph-name="Egrave" horiz-adv-x="1206" unicode="&#xc8;"/><glyph d="M1141 0h-977v1362h960v-227h-665v-326h545v-227h-545v-355h682v-227zM668 1475h-203l149 215h299z" glyph-name="Eacute" horiz-adv-x="1206" unicode="&#xc9;"/><glyph d="M1141 0h-977v1362h960v-227h-665v-326h545v-227h-545v-355h682v-227zM918 1475h-189l-96 106-96-106h-191l168 215h238z" glyph-name="Ecircumflex" horiz-adv-x="1206" unicode="&#xca;"/><glyph d="M1141 0h-977v1362h960v-227h-665v-326h545v-227h-545v-355h682v-227zM893 1475h-203v196h203v-196zM559 1475h-203v196h203v-196z" glyph-name="Edieresis" horiz-adv-x="1206" unicode="&#xcb;"/><glyph d="M459 0h-295v1362h295v-1362zM487 1475h-202l-246 215h299z" glyph-name="Igrave" horiz-adv-x="622" unicode="&#xcc;"/><glyph d="M459 0h-295v1362h295v-1362zM317 1475h-202l149 215h299z" glyph-name="Iacute" horiz-adv-x="622" unicode="&#xcd;"/><glyph d="M459 0h-295v1362h295v-1362zM598 1475h-188l-97 106-96-106h-190l168 215h237z" glyph-name="Icircumflex" horiz-adv-x="622" unicode="&#xce;"/><glyph d="M459 0h-295v1362h295v-1362zM580 1475h-203v196h203v-196zM246 1475h-203v196h203v-196z" glyph-name="Idieresis" horiz-adv-x="622" unicode="&#xcf;"/><glyph d="M1266 883v-404q0-205-131-342t-347-137h-624v1362h624q216 0 347-137t131-342zM971 487v387q0 120-50.5 190.5t-156.5 70.5h-305v-908h305q106 0 156.5 70t50.5 190zM694 594h-680v207h680v-207z" glyph-name="Eth" horiz-adv-x="1368" unicode="&#xd0;"/><glyph d="M1249 0h-291v59q0 54-15 92.5t-48 81.5l-442 582h-17v-815h-272v1362h291v-59q0-54 15.5-93t49.5-82l438-571h19v805h272v-1362zM1055 1597l-144-129h-110q-35 0-68 20.5t-52.5 45-40 45-34.5 20.5h-31q-45 0-45-61v-59h-151v123l143 129h111q35 0 67.5-21t52-46 40.5-46 36-21h29q45 0 45 64v59h152v-123z" glyph-name="Ntilde" horiz-adv-x="1413" unicode="&#xd1;"/><glyph d="M1264 944v-526q0-185-133-306.5t-349-121.5h-196q-216 0-350 121.5t-134 306.5v526q0 185 134 306.5t350 121.5h196q216 0 349-121.5t133-306.5zM969 455v452q0 106-52.5 173t-148.5 67h-170q-96 0-148.5-67t-52.5-173v-452q0-106 52.5-173t148.5-67h170q96 0 148.5 67t52.5 173zM834 1475h-203l-246 215h299z" glyph-name="Ograve" horiz-adv-x="1366" unicode="&#xd2;"/><glyph d="M1264 944v-526q0-185-133-306.5t-349-121.5h-196q-216 0-350 121.5t-134 306.5v526q0 185 134 306.5t350 121.5h196q216 0 349-121.5t133-306.5zM969 455v452q0 106-52.5 173t-148.5 67h-170q-96 0-148.5-67t-52.5-173v-452q0-106 52.5-173t148.5-67h170q96 0 148.5 67t52.5 173zM707 1475h-203l149 215h299z" glyph-name="Oacute" horiz-adv-x="1366" unicode="&#xd3;"/><glyph d="M1264 944v-526q0-185-133-306.5t-349-121.5h-196q-216 0-350 121.5t-134 306.5v526q0 185 134 306.5t350 121.5h196q216 0 349-121.5t133-306.5zM969 455v452q0 106-52.5 173t-148.5 67h-170q-96 0-148.5-67t-52.5-173v-452q0-106 52.5-173t148.5-67h170q96 0 148.5 67t52.5 173zM971 1475h-189l-96 106-96-106h-191l168 215h238z" glyph-name="Ocircumflex" horiz-adv-x="1366" unicode="&#xd4;"/><glyph d="M1264 944v-526q0-185-133-306.5t-349-121.5h-196q-216 0-350 121.5t-134 306.5v526q0 185 134 306.5t350 121.5h196q216 0 349-121.5t133-306.5zM969 455v452q0 106-52.5 173t-148.5 67h-170q-96 0-148.5-67t-52.5-173v-452q0-106 52.5-173t148.5-67h170q96 0 148.5 67t52.5 173zM1028 1597l-143-129h-111q-29 0-55.5 13.5t-45.5 33-35.5 38.5-31 32.5-26.5 13.5h-31q-45 0-45-61v-59h-152v123l144 129h110q35 0 67.5-21t52.5-46 41-46 36-21h28q46 0 46 64v59h151v-123z" glyph-name="Otilde" horiz-adv-x="1366" unicode="&#xd5;"/><glyph d="M1264 944v-526q0-185-133-306.5t-349-121.5h-196q-216 0-350 121.5t-134 306.5v526q0 185 134 306.5t350 121.5h196q216 0 349-121.5t133-306.5zM969 455v452q0 106-52.5 173t-148.5 67h-170q-96 0-148.5-67t-52.5-173v-452q0-106 52.5-173t148.5-67h170q96 0 148.5 67t52.5 173zM950 1475h-202v196h202v-196zM616 1475h-202v196h202v-196z" glyph-name="Odieresis" horiz-adv-x="1366" unicode="&#xd6;"/><glyph d="M377 236l-139 139 208 209-208 209 139 139 209-207 211 209 139-139-209-211 209-211-139-140-211 209z" glyph-name="multiply" unicode="&#xd7;"/><glyph d="M123-41l139 186q-98 115-98 273v526q0 185 133.5 306.5t349.5 121.5h197q156 0 278-72l76 103h168l-139-189q98-112 98-270v-526q0-185-132.5-306.5t-348.5-121.5h-197q-163 0-280 69l-76-100h-168zM459 455q0-29 2-41l506 678q-52 55-138 55h-170q-96 0-148-67t-52-173v-452zM1030 455v452q0 7-1 20.5t-1 20.5l-506-680q53-53 137-53h170q96 0 148.5 67t52.5 173z" glyph-name="Oslash" horiz-adv-x="1488" unicode="&#xd8;"/><glyph d="M1249 1362v-942q0-182-120.5-306t-313.5-124h-217q-193 0-313.5 124t-120.5 306v942h295v-938q0-93 45.5-151t116.5-58h172q71 0 116 58t45 151v938h295zM879 1475h-203l-246 215h299z" glyph-name="Ugrave" horiz-adv-x="1413" unicode="&#xd9;"/><glyph d="M1249 1362v-942q0-182-120.5-306t-313.5-124h-217q-193 0-313.5 124t-120.5 306v942h295v-938q0-93 45.5-151t116.5-58h172q71 0 116 58t45 151v938h295zM754 1475h-203l149 215h299z" glyph-name="Uacute" horiz-adv-x="1413" unicode="&#xda;"/><glyph d="M1249 1362v-942q0-182-120.5-306t-313.5-124h-217q-193 0-313.5 124t-120.5 306v942h295v-938q0-93 45.5-151t116.5-58h172q71 0 116 58t45 151v938h295zM991 1475h-188l-96 106-97-106h-190l168 215h237z" glyph-name="Ucircumflex" horiz-adv-x="1413" unicode="&#xdb;"/><glyph d="M1249 1362v-942q0-182-120.5-306t-313.5-124h-217q-193 0-313.5 124t-120.5 306v942h295v-938q0-93 45.5-151t116.5-58h172q71 0 116 58t45 151v938h295zM975 1475h-203v196h203v-196zM641 1475h-203v196h203v-196z" glyph-name="Udieresis" horiz-adv-x="1413" unicode="&#xdc;"/><glyph d="M1167 1174l-409-705v-469h-295v469l-412 700v193h299v-98q0-63 45-146l203-373h25l204 371q25 48 33 78t8 70v98h299v-188zM668 1475h-203l149 215h299z" glyph-name="Yacute" horiz-adv-x="1218" unicode="&#xdd;"/><glyph d="M1155 778v-170q0-101-61-186t-152.5-130.5-187.5-45.5h-297v-246h-293v1362h293v-225h274q113 0 208.5-42t155.5-125 60-192zM860 623v143q0 70-42 107.5t-118 37.5h-243v-442h270q53 0 93 44t40 110z" glyph-name="Thorn" horiz-adv-x="1236" unicode="&#xde;"/><glyph d="M1139 522v-309l-226-213h-397v199h217q52 0 87.5 44t35.5 105v144q0 52-41 83t-102 31h-156v197h113q58 0 101.5 40t43.5 91v96q0 146-115 146h-153q-60 0-90.5-42t-30.5-112v-1237h-283v1249q0 148 92 243t228 95h291q168 0 254-87.5t86-244.5v-194l-131-111q176-70 176-213z" glyph-name="germandbls" horiz-adv-x="1261" unicode="&#xdf;"/><glyph d="M1044 0h-190l-74 90-125-100h-266q-127 0-207 76.5t-80 195.5v105q0 107 82.5 171t194.5 64h317v94q0 95-75 95h-140q-54 0-59-39l-4-29h-268v147l184 113h342q130 0 216.5-73.5t86.5-194.5v-492l65-84v-139zM696 346v80h-219q-30 0-62-21.5t-32-68.5v-55q0-44 26-73.5t64-29.5h94q63 0 96 45.5t33 122.5zM705 1085h-203l-246 215h299z" glyph-name="agrave" horiz-adv-x="1126" unicode="&#xe0;"/><glyph d="M1044 0h-190l-74 90-125-100h-266q-127 0-207 76.5t-80 195.5v105q0 107 82.5 171t194.5 64h317v94q0 95-75 95h-140q-54 0-59-39l-4-29h-268v147l184 113h342q130 0 216.5-73.5t86.5-194.5v-492l65-84v-139zM696 346v80h-219q-30 0-62-21.5t-32-68.5v-55q0-44 26-73.5t64-29.5h94q63 0 96 45.5t33 122.5zM625 1085h-203l149 215h299z" glyph-name="aacute" horiz-adv-x="1126" unicode="&#xe1;"/><glyph d="M1044 0h-190l-74 90-125-100h-266q-127 0-207 76.5t-80 195.5v105q0 107 82.5 171t194.5 64h317v94q0 95-75 95h-140q-54 0-59-39l-4-29h-268v147l184 113h342q130 0 216.5-73.5t86.5-194.5v-492l65-84v-139zM696 346v80h-219q-30 0-62-21.5t-32-68.5v-55q0-44 26-73.5t64-29.5h94q63 0 96 45.5t33 122.5zM848 1085h-189l-96 107-96-107h-191l168 215h238z" glyph-name="acircumflex" horiz-adv-x="1126" unicode="&#xe2;"/><glyph d="M1044 0h-190l-74 90-125-100h-266q-127 0-207 76.5t-80 195.5v105q0 107 82.5 171t194.5 64h317v94q0 95-75 95h-140q-54 0-59-39l-4-29h-268v147l184 113h342q130 0 216.5-73.5t86.5-194.5v-492l65-84v-139zM696 346v80h-219q-30 0-62-21.5t-32-68.5v-55q0-44 26-73.5t64-29.5h94q63 0 96 45.5t33 122.5zM897 1208l-143-129h-111q-29 0-55.5 13.5t-45.5 32.5-35.5 38.5-31 33-26.5 13.5h-31q-45 0-45-61v-59h-152v122l144 129h110q35 0 67.5-21t52.5-45.5 41-45.5 36-21h28q45 0 45 64v59h152v-123z" glyph-name="atilde" horiz-adv-x="1126" unicode="&#xe3;"/><glyph d="M1044 0h-190l-74 90-125-100h-266q-127 0-207 76.5t-80 195.5v105q0 107 82.5 171t194.5 64h317v94q0 95-75 95h-140q-54 0-59-39l-4-29h-268v147l184 113h342q130 0 216.5-73.5t86.5-194.5v-492l65-84v-139zM696 346v80h-219q-30 0-62-21.5t-32-68.5v-55q0-44 26-73.5t64-29.5h94q63 0 96 45.5t33 122.5zM831 1085h-202v197h202v-197zM498 1085h-203v197h203v-197z" glyph-name="adieresis" horiz-adv-x="1126" unicode="&#xe4;"/><glyph d="M1044 0h-190l-74 90-125-100h-266q-127 0-207 76.5t-80 195.5v105q0 107 82.5 171t194.5 64h317v94q0 95-75 95h-140q-54 0-59-39l-4-29h-268v147l184 113h342q130 0 216.5-73.5t86.5-194.5v-492l65-84v-139zM696 346v80h-219q-30 0-62-21.5t-32-68.5v-55q0-44 26-73.5t64-29.5h94q63 0 96 45.5t33 122.5zM848 1208q0-56-53.5-92.5t-122.5-36.5h-176q-71 0-125 36.5t-54 92.5v131q0 58 54 94.5t125 36.5h176q70 0 123-36.5t53-94.5v-131zM686 1233v84q0 20-17 32.5t-40 12.5h-90q-22 0-40-13t-18-32v-84q0-20 18-32.5t40-12.5h90q23 0 40 12t17 33z" glyph-name="aring" horiz-adv-x="1126" unicode="&#xe5;"/><glyph d="M1581 631v-207h-602v-84q3-62 37.5-110t85.5-48h100q55 0 81 23.5t26 73.5v18h272v-156l-199-151h-313q-166 0-278 112l-136-112h-266q-127 0-207 76.5t-80 195.5v105q0 107 82.5 171t194.5 64h317v94q0 95-75 95h-140q-54 0-59-39l-4-29h-268v147l184 113h342q103 0 184-49 77 49 184 49h218q139 0 229-102t90-250zM567 178q60 0 93 41.5t36 112.5v94h-219q-30 0-62-21.5t-32-68.5v-55q0-44 26-73.5t64-29.5h94zM1307 598q0 96-22.5 144.5t-78.5 48.5h-123q-104 0-104-193h328z" glyph-name="ae" horiz-adv-x="1683" unicode="&#xe6;"/><glyph d="M954 152l-209-162h-296q-79 0-150.5 28.5t-121 74.5-78.5 106.5-29 122.5v329q0 132 100.5 232t257.5 100h317l209-162v-178h-282v35q0 42-30 75t-67 33h-94q-62 0-95.5-47t-33.5-118v-269q0-71 33.5-118.5t95.5-47.5h94q37 0 67 33.5t30 75.5v35h282v-178zM776-283q0-52-45-89.5t-113-37.5h-161q-61 0-99.5 43t-38.5 93v38h134v-14q0-30 15.5-44.5t51.5-14.5h51q70 0 70 57v37q0 55-74 55h-188l31 164h163l-16-72h68q67 0 109-29.5t42-78.5v-107z" glyph-name="ccedilla" horiz-adv-x="1042" unicode="&#xe7;"/><glyph d="M987 631v-207h-602v-72q0-66 34.5-118t88.5-52h100q55 0 81 23.5t26 73.5v18h272v-156l-199-151h-313q-158 0-265.5 101t-107.5 231v301q0 68 23 131.5t66 115 110.5 82.5 149.5 31h217q139 0 229-102t90-250zM713 598q0 96-22.5 144.5t-78.5 48.5h-123q-104 0-104-193h328zM707 1085h-203l-246 215h299z" glyph-name="egrave" horiz-adv-x="1089" unicode="&#xe8;"/><glyph d="M987 631v-207h-602v-72q0-66 34.5-118t88.5-52h100q55 0 81 23.5t26 73.5v18h272v-156l-199-151h-313q-158 0-265.5 101t-107.5 231v301q0 68 23 131.5t66 115 110.5 82.5 149.5 31h217q139 0 229-102t90-250zM713 598q0 96-22.5 144.5t-78.5 48.5h-123q-104 0-104-193h328zM625 1085h-203l149 215h299z" glyph-name="eacute" horiz-adv-x="1089" unicode="&#xe9;"/><glyph d="M987 631v-207h-602v-72q0-66 34.5-118t88.5-52h100q55 0 81 23.5t26 73.5v18h272v-156l-199-151h-313q-158 0-265.5 101t-107.5 231v301q0 68 23 131.5t66 115 110.5 82.5 149.5 31h217q139 0 229-102t90-250zM713 598q0 96-22.5 144.5t-78.5 48.5h-123q-104 0-104-193h328zM840 1085h-189l-96 107-96-107h-191l168 215h238z" glyph-name="ecircumflex" horiz-adv-x="1089" unicode="&#xea;"/><glyph d="M987 631v-207h-602v-72q0-66 34.5-118t88.5-52h100q55 0 81 23.5t26 73.5v18h272v-156l-199-151h-313q-158 0-265.5 101t-107.5 231v301q0 68 23 131.5t66 115 110.5 82.5 149.5 31h217q139 0 229-102t90-250zM713 598q0 96-22.5 144.5t-78.5 48.5h-123q-104 0-104-193h328zM813 1085h-203v197h203v-197zM479 1085h-203v197h203v-197z" glyph-name="edieresis" horiz-adv-x="1089" unicode="&#xeb;"/><glyph d="M426 0h-283v973h283v-973zM459 1085h-203l-246 215h299z" glyph-name="igrave" horiz-adv-x="569" unicode="&#xec;"/><glyph d="M426 0h-283v973h283v-973zM281 1085h-203l149 215h299z" glyph-name="iacute" horiz-adv-x="569" unicode="&#xed;"/><glyph d="M426 0h-283v973h283v-973zM571 1085h-188l-96 107-97-107h-190l168 215h238z" glyph-name="icircumflex" horiz-adv-x="569" unicode="&#xee;"/><glyph d="M426 0h-283v973h283v-973zM553 1085h-203v197h203v-197zM219 1085h-203v197h203v-197z" glyph-name="idieresis" horiz-adv-x="569" unicode="&#xef;"/><glyph d="M1047 340q0-142-92.5-246t-233.5-104h-254q-153 0-248.5 103t-95.5 247v295q0 143 97 245.5t255 102.5h174q33 0 71-11.5t54-31.5h4q0 167-44 229t-163 62h-249v203h213q258 0 385-116t127-339v-639zM764 354v262q0 73-36 118.5t-95 45.5h-96q-59 0-95-45.5t-36-118.5v-262q0-72 36-116.5t95-44.5h96q59 0 95 44.5t36 116.5zM1047 1360l-461-320v105l461 319v-104z" glyph-name="eth" unicode="&#xf0;"/><glyph d="M1030 627v-627h-282v649q0 71-30.5 101t-72.5 30h-70q-58 0-103.5-51.5t-45.5-130.5v-598h-283v973h217l13-107h18l129 117h228q73 0 126-20t82.5-51.5 46.5-81 22-95 5-108.5zM932 1208l-144-129h-110q-35 0-68 20.5t-52.5 45-40 45-34.5 20.5h-30q-45 0-45-61v-59h-152v122l143 129h111q35 0 67.5-21t52.5-45.5 41-45.5 36-21h28q45 0 45 64v59h152v-123z" glyph-name="ntilde" horiz-adv-x="1173" unicode="&#xf1;"/><glyph d="M1026 635v-297q0-92-41.5-170.5t-123.5-128-189-49.5h-217q-158 0-255.5 102.5t-97.5 245.5v297q0 143 97.5 245.5t255.5 102.5h217q107 0 189-49.5t123.5-128 41.5-170.5zM743 356v260q0 73-36 118.5t-95 45.5h-96q-59 0-95-45.5t-36-118.5v-260q0-73 36-118t95-45h96q59 0 95 45t36 118zM715 1085h-203l-246 215h299z" glyph-name="ograve" horiz-adv-x="1128" unicode="&#xf2;"/><glyph d="M1026 635v-297q0-92-41.5-170.5t-123.5-128-189-49.5h-217q-158 0-255.5 102.5t-97.5 245.5v297q0 143 97.5 245.5t255.5 102.5h217q107 0 189-49.5t123.5-128 41.5-170.5zM743 356v260q0 73-36 118.5t-95 45.5h-96q-59 0-95-45.5t-36-118.5v-260q0-73 36-118t95-45h96q59 0 95 45t36 118zM608 1085h-202l149 215h299z" glyph-name="oacute" horiz-adv-x="1128" unicode="&#xf3;"/><glyph d="M1026 635v-297q0-92-41.5-170.5t-123.5-128-189-49.5h-217q-158 0-255.5 102.5t-97.5 245.5v297q0 143 97.5 245.5t255.5 102.5h217q107 0 189-49.5t123.5-128 41.5-170.5zM743 356v260q0 73-36 118.5t-95 45.5h-96q-59 0-95-45.5t-36-118.5v-260q0-73 36-118t95-45h96q59 0 95 45t36 118zM850 1085h-188l-97 107-96-107h-190l167 215h238z" glyph-name="ocircumflex" horiz-adv-x="1128" unicode="&#xf4;"/><glyph d="M1026 635v-297q0-92-41.5-170.5t-123.5-128-189-49.5h-217q-158 0-255.5 102.5t-97.5 245.5v297q0 143 97.5 245.5t255.5 102.5h217q107 0 189-49.5t123.5-128 41.5-170.5zM743 356v260q0 73-36 118.5t-95 45.5h-96q-59 0-95-45.5t-36-118.5v-260q0-73 36-118t95-45h96q59 0 95 45t36 118zM903 1208l-143-129h-111q-29 0-55.5 13.5t-45.5 32.5-35.5 38.5-31 33-26.5 13.5h-31q-45 0-45-61v-59h-152v122l144 129h110q35 0 67.5-21t52.5-45.5 41-45.5 36-21h29q45 0 45 64v59h151v-123z" glyph-name="otilde" horiz-adv-x="1128" unicode="&#xf5;"/><glyph d="M1026 635v-297q0-92-41.5-170.5t-123.5-128-189-49.5h-217q-158 0-255.5 102.5t-97.5 245.5v297q0 143 97.5 245.5t255.5 102.5h217q107 0 189-49.5t123.5-128 41.5-170.5zM743 356v260q0 73-36 118.5t-95 45.5h-96q-59 0-95-45.5t-36-118.5v-260q0-73 36-118t95-45h96q59 0 95 45t36 118zM831 1085h-202v197h202v-197zM498 1085h-203v197h203v-197z" glyph-name="odieresis" horiz-adv-x="1128" unicode="&#xf6;"/><glyph d="M983 485h-790v199h790v-199zM471 760v213h234v-213h-234zM471 193v213h234v-213h-234z" glyph-name="divide" unicode="&#xf7;"/><glyph d="M1026 635v-297q0-92-41.5-170.5t-123.5-128-189-49.5h-217q-158 0-255.5 102.5t-97.5 245.5v297q0 143 97.5 245.5t255.5 102.5h217q107 0 189-49.5t123.5-128 41.5-170.5zM743 356v260q0 73-36 118.5t-95 45.5h-96q-59 0-95-45.5t-36-118.5v-260q0-73 36-118t95-45h96q59 0 95 45t36 118zM61-20l875 1024h131l-874-1024h-132z" glyph-name="oslash" horiz-adv-x="1128" unicode="&#xf8;"/><glyph d="M143 346v627h283v-649q0-71 30-101t72-30h70q58 0 104 51.5t46 130.5v598h282v-973h-217l-12 106h-19l-129-116h-227q-73 0-126 20t-83 51.5-47 80.5-22 95.5-5 108.5zM754 1085h-203l-246 215h299z" glyph-name="ugrave" horiz-adv-x="1173" unicode="&#xf9;"/><glyph d="M143 346v627h283v-649q0-71 30-101t72-30h70q58 0 104 51.5t46 130.5v598h282v-973h-217l-12 106h-19l-129-116h-227q-73 0-126 20t-83 51.5-47 80.5-22 95.5-5 108.5zM633 1085h-203l150 215h299z" glyph-name="uacute" horiz-adv-x="1173" unicode="&#xfa;"/><glyph d="M143 346v627h283v-649q0-71 30-101t72-30h70q58 0 104 51.5t46 130.5v598h282v-973h-217l-12 106h-19l-129-116h-227q-73 0-126 20t-83 51.5-47 80.5-22 95.5-5 108.5zM872 1085h-188l-96 107-96-107h-191l168 215h238z" glyph-name="ucircumflex" horiz-adv-x="1173" unicode="&#xfb;"/><glyph d="M143 346v627h283v-649q0-71 30-101t72-30h70q58 0 104 51.5t46 130.5v598h282v-973h-217l-12 106h-19l-129-116h-227q-73 0-126 20t-83 51.5-47 80.5-22 95.5-5 108.5zM854 1085h-203v197h203v-197zM520 1085h-203v197h203v-197z" glyph-name="udieresis" horiz-adv-x="1173" unicode="&#xfc;"/><glyph d="M995 831l-473-1105-184-156h-318v219h177q71 0 122 107l74 155-325 785v137h282v-51q0-86 49-209l123-320h19l127 326q45 108 45 203v51h282v-142zM567 1085h-202l149 215h299z" glyph-name="yacute" horiz-adv-x="1046" unicode="&#xfd;"/><glyph d="M1051 629v-289q0-87-35-165t-109.5-131.5-173.5-53.5h-147q-40 0-93.5 29t-66.5 59v-500h-283v1856h283v-514q69 63 168 63h135q154 0 238-95.5t84-258.5zM768 352v254q0 85-29.5 129.5t-81.5 44.5h-94q-61 0-100-48.5t-39-119.5v-278q0-58 43.5-99.5t89.5-41.5h86q56 0 90.5 47t34.5 112z" glyph-name="thorn" horiz-adv-x="1161" unicode="&#xfe;"/><glyph d="M995 831l-473-1105-184-156h-318v219h177q71 0 122 107l74 155-325 785v137h282v-51q0-86 49-209l123-320h19l127 326q45 108 45 203v51h282v-142zM793 1085h-203v197h203v-197zM459 1085h-203v197h203v-197z" glyph-name="ydieresis" horiz-adv-x="1046" unicode="&#xff;"/><glyph d="M426 0h-283v973h283v-973z" glyph-name="dotlessi" horiz-adv-x="569" unicode="&#x131;"/><glyph d="M631 680l-172-55v-398h626v-227h-921v532l-131-40v206l131 41v623h295v-531l172 56v-207z" glyph-name="Lslash" horiz-adv-x="1116" unicode="&#x141;"/><glyph d="M426 0h-283v520l-116-35v207l116 35v707h283v-619l117 37v-207l-117-37v-608z" glyph-name="lslash" horiz-adv-x="569" unicode="&#x142;"/><glyph d="M1692 0h-1127q-215 0-349 120.5t-134 297.5v526q0 177 134 297.5t349 120.5h1110v-227h-624v-326h503v-227h-503v-355h641v-227zM377 455q0-97 55.5-163.5t145.5-66.5h178v912h-178q-90 0-145.5-66.5t-55.5-163.5v-452z" glyph-name="OE" horiz-adv-x="1757" unicode="&#x152;"/><glyph d="M1628 631v-207h-602v-84q3-62 37.5-110t85.5-48h100q55 0 81 23.5t26 73.5v18h272v-156l-198-151h-314q-125 0-225 67-89-67-219-67h-217q-158 0-255.5 102.5t-97.5 245.5v297q0 143 97.5 245.5t255.5 102.5h217q123 0 213-65 84 65 207 65h217q139 0 229-102t90-250zM743 356v260q0 73-36 118.5t-95 45.5h-96q-59 0-95-45.5t-36-118.5v-260q0-73 36-118t95-45h96q59 0 95 45t36 118zM1354 598q0 96-22.5 144.5t-78.5 48.5h-123q-52 0-77-47.5t-27-122.5v-23h328z" glyph-name="oe" horiz-adv-x="1802" unicode="&#x153;"/><glyph d="M1108 469v-197q0-109-95-195.5t-245-86.5h-446l-220 160v219h273v-56q0-54 44.5-82t96.5-28h156q58 0 101.5 30.5t43.5 81.5v125q0 100-108 123l-361 72q-119 24-178 101t-59 196v141q0 127 85 213t238 86h434l224-166v-217h-273v49q0 55-33 90t-90 35h-174q-121 0-121-100v-100q0-40 26.5-70.5t61.5-36.5l355-70q145-28 204.5-105t59.5-212zM326 1690h188l96-107 97 107h190l-168-215h-237z" glyph-name="Scaron" horiz-adv-x="1210" unicode="&#x160;"/><glyph d="M954 332v-103q0-88-80-163.5t-198-75.5h-393l-181 160v155h265l6-45q6-39 31.5-61.5t58.5-22.5h121q94 0 94 66v51q0 36-19.5 54.5t-66.5 29.5l-240 55q-241 55-241 225v99q0 105 79.5 166t202.5 61h363l180-160v-149h-260l-8 45q-14 78-90 78h-121q-34 0-56-16.5t-22-47.5v-39q0-21 18.5-37t48.5-24l279-68q122-29 175.5-84t53.5-149zM240 1300h188l96-106 97 106h190l-168-215h-237z" glyph-name="scaron" horiz-adv-x="1056" unicode="&#x161;"/><glyph d="M1167 1174l-409-705v-469h-295v469l-412 700v193h299v-98q0-63 45-146l203-373h25l204 371q25 48 33 78t8 70v98h299v-188zM877 1475h-203v196h203v-196zM543 1475h-203v196h203v-196z" glyph-name="Ydieresis" horiz-adv-x="1218" unicode="&#x178;"/><glyph d="M1118 0h-1040v319l696 773v43h-686v227h1002v-320l-695-772v-43h723v-227zM285 1690h188l96-107 97 107h190l-168-215h-237z" glyph-name="Zcaron" horiz-adv-x="1196" unicode="&#x17d;"/><glyph d="M905 0h-815v227l455 521v22h-463v203h799v-228l-459-522v-20h483v-203zM207 1300h188l97-106 96 106h190l-168-215h-237z" glyph-name="zcaron" horiz-adv-x="987" unicode="&#x17e;"/><glyph d="M840 1225h-154q-46 0-77-31.5t-40-85.5l-22-135h235l-37-201h-235l-154-885q-6-37-20.5-75t-44-80.5-69.5-75.5-102-54.5-136-21.5h-215l36 209h154q46 0 77 31.5t40 85.5l151 866h-209l37 201h209l27 153q6 37 20.5 75t44 81 69.5 76 101.5 54.5 135.5 21.5h215z" glyph-name="florin" horiz-adv-x="772" unicode="&#x192;"/><glyph d="M694 1085h-188l-96 107-97-107h-190l168 215h237z" glyph-name="circumflex" horiz-adv-x="817" unicode="&#x2c6;"/><glyph d="M86 1300h188l97-106 96 106h190l-168-215h-237z" glyph-name="caron" horiz-adv-x="733" unicode="&#x2c7;"/><glyph d="M618 1300q0-70-15.5-113.5t-50.5-65.5-75.5-29-105.5-7q-52 0-86.5 4t-67.5 17-52 36-30.5 62.5-11.5 95.5h135q0-50 27-66.5t86-16.5 86.5 16.5 27.5 66.5h133z" glyph-name="breve" horiz-adv-x="741" unicode="&#x2d8;"/><glyph d="M365 1085h-242v242h242v-242z" glyph-name="dotaccent" horiz-adv-x="487" unicode="&#x2d9;"/><glyph d="M653 1208q0-56-53.5-92.5t-122.5-36.5h-176q-71 0-124.5 36.5t-53.5 92.5v131q0 58 53.5 94.5t124.5 36.5h176q70 0 123-36.5t53-94.5v-131zM492 1233v84q0 19-17.5 32t-40.5 13h-90q-22 0-39.5-13t-17.5-32v-84q0-20 17.5-32.5t39.5-12.5h90q23 0 40.5 12t17.5 33z" glyph-name="ring" horiz-adv-x="776" unicode="&#x2da;"/><glyph d="M444-403h-129q-95 0-143.5 43t-48.5 122q0 56 37 129l82 158h186l-113-237q-22-51-22-64 0-24 45-24h106v-127z" glyph-name="ogonek" horiz-adv-x="567" unicode="&#x2db;"/><glyph d="M799 1208l-144-129h-110q-35 0-68 20.5t-52.5 45-40 45-34.5 20.5h-31q-45 0-45-61v-59h-151v122l143 129h111q35 0 67.5-21t52-45.5 40.5-45.5 36-21h29q45 0 45 64v59h152v-123z" glyph-name="tilde" horiz-adv-x="921" unicode="&#x2dc;"/><glyph d="M692 1300l-182-215h-139l114 215h207zM444 1300l-182-215h-139l115 215h206z" glyph-name="hungarumlaut" horiz-adv-x="815" unicode="&#x2dd;"/><glyph d="M1413 0h-1311l656 1407zM1038 229l-284 658-283-658h567z" glyph-name="Delta" horiz-adv-x="1515" unicode="&#x394;"/><glyph d="M1413 0h-1311l656 1407zM1038 229l-284 658-283-658h567z" glyph-name="Delta" horiz-adv-x="1515" unicode="&#x2206;"/><glyph d="M1405 756q0-99-14.5-175.5t-49.5-145.5-102-116-164-69v-55h277v-195h-486v379q80 9 132 36.5t79.5 78.5 38 114.5 10.5 159.5q0 93-9 157.5t-31 115-60.5 79.5-95 43.5-137.5 14.5q-103 0-167.5-22t-101-74.5-50-125.5-13.5-190q0-77 5.5-130t21.5-101 44.5-78 74-50.5 110.5-27.5v-379h-486v195h275v55q-80 18-138.5 54t-93.5 81.5-55.5 107.5-27.5 121.5-7 133.5q0 334 142 479t460 145q322 0 470.5-145.5t148.5-470.5z" glyph-name="Omega" horiz-adv-x="1589" unicode="&#x3a9;"/><glyph d="M1405 756q0-99-14.5-175.5t-49.5-145.5-102-116-164-69v-55h277v-195h-486v379q80 9 132 36.5t79.5 78.5 38 114.5 10.5 159.5q0 93-9 157.5t-31 115-60.5 79.5-95 43.5-137.5 14.5q-103 0-167.5-22t-101-74.5-50-125.5-13.5-190q0-77 5.5-130t21.5-101 44.5-78 74-50.5 110.5-27.5v-379h-486v195h275v55q-80 18-138.5 54t-93.5 81.5-55.5 107.5-27.5 121.5-7 133.5q0 334 142 479t460 145q322 0 470.5-145.5t148.5-470.5z" glyph-name="Omega" horiz-adv-x="1589" unicode="&#x2126;"/><glyph d="M1087 764h-151v-533l72-71v-160h-146l-137 133v631h-268v-764h-213v764h-152v209h995v-209z" glyph-name="pi" unicode="&#x3c0;"/><glyph d="M981 481h-899v207h899v-207z" glyph-name="endash" horiz-adv-x="843" unicode="&#x2013;"/><glyph d="M1798 481h-1716v207h1716v-207z" glyph-name="emdash" horiz-adv-x="1880" unicode="&#x2014;"/><glyph d="M123 928l78 434h178v-434h-256z" glyph-name="quoteleft" horiz-adv-x="501" unicode="&#x2018;"/><glyph d="M379 1362l-78-434h-178v434h256z" glyph-name="quoteright" horiz-adv-x="501" unicode="&#x2019;"/><glyph d="M420 238l-78-435h-219v435h297z" glyph-name="quotesinglbase" horiz-adv-x="542" unicode="&#x201a;"/><glyph d="M123 928l78 434h178v-434h-256zM465 928l78 434h178v-434h-256z" glyph-name="quotedblleft" horiz-adv-x="843" unicode="&#x201c;"/><glyph d="M721 1362l-78-434h-178v434h256zM379 1362l-78-434h-178v434h256z" glyph-name="quotedblright" horiz-adv-x="843" unicode="&#x201d;"/><glyph d="M721 238l-78-435h-178v435h256zM379 238l-78-435h-178v435h256z" glyph-name="quotedblbase" horiz-adv-x="845" unicode="&#x201e;"/><glyph d="M883 750h-258v-1160h-252v1160h-250v202h250v410h252v-410h258v-202z" glyph-name="dagger" horiz-adv-x="1005" unicode="&#x2020;"/><glyph d="M883 750h-258v-263h258v-202h-258v-695h-252v695h-250v202h250v263h-250v202h250v410h252v-410h258v-202z" glyph-name="daggerdbl" horiz-adv-x="999" unicode="&#x2021;"/><glyph d="M739 913v-493h-514v493h514z" glyph-name="bullet" horiz-adv-x="958" unicode="&#x2022;"/><glyph d="M424 0h-301v283h301v-283zM909 0h-301v283h301v-283zM1395 0h-301v283h301v-283z" glyph-name="ellipsis" horiz-adv-x="1509" unicode="&#x2026;"/><glyph d="M707 870q0-83-53-134.5t-134-51.5h-184q-83 0-138 51.5t-55 134.5v306q0 82 55 134t138 52h184q80 0 133.5-52t53.5-134v-306zM522 893v260q0 80-55 80h-84q-55 0-55-80v-260q0-80 55-80h84q55 0 55 80zM1298 1206l-706-1038q-43-61-43-109v-79h-189v159l709 1055q41 58 41 109v79h188v-176zM1520 186q0-83-53-134.5t-134-51.5h-184q-83 0-138 51.5t-55 134.5v306q0 82 55 134t138 52h184q80 0 133.5-52t53.5-134v-306zM1335 209v260q0 80-55 80h-84q-55 0-55-80v-260q0-80 55-80h84q55 0 55 80zM2173 186q0-84-52.5-135t-133.5-51h-185q-83 0-137.5 51.5t-54.5 134.5v306q0 82 54.5 134t137.5 52h185q80 0 133-52t53-134v-306zM1989 209v260q0 80-56 80h-84q-55 0-55-80v-260q0-80 55-80h84q56 0 56 80z" glyph-name="perthousand" horiz-adv-x="2316" unicode="&#x2030;"/><glyph d="M602 176h-256l-223 361 223 358h256l-223-358z" glyph-name="guilsinglleft" horiz-adv-x="724" unicode="&#x2039;"/><glyph d="M602 539l-223-361h-256l223 361-223 358h256z" glyph-name="guilsinglright" horiz-adv-x="724" unicode="&#x203a;"/><glyph d="M1143 1186l-707-998q-43-59-43-108v-80h-188v160l708 1014q41 58 41 108v80h189v-176z" glyph-name="fraction" horiz-adv-x="1345" unicode="&#x2044;"/><glyph d="M1133 166l-240-176h-320q-108 0-187.5 30.5t-127 86.5-70 128.5-22.5 161.5v66h-119v149h119v121h-119v150h119v82q0 89 22.5 161.5t70 128.5 127 86.5 187.5 30.5h320l240-172v-217h-254v61q0 48-35.5 75.5t-89.5 27.5h-140q-87 0-125-50.5t-38-148.5v-65h393v-150h-393v-121h258v-149h-258v-49q0-98 38-148.5t125-50.5h140q56 0 90.5 27t34.5 75v62h254v-213z" glyph-name="Euro" unicode="&#x20ac;"/><glyph d="M1436 662h-154v331h-6l-86-149q-25-42-25-80v-33h-153v33q0 34-27 80l-86 149h-6v-331h-152v700h160v-51q0-41 29-88l162-271 153 273q31 60 31 86v51h160v-700zM698 1237h-186v-575h-162v575h-186v125h534v-125z" glyph-name="trademark" horiz-adv-x="1599" unicode="&#x2122;"/><glyph d="M1047 340q0-142-92.5-246t-233.5-104h-254q-153 0-248.5 103t-95.5 247v295q0 143 97 245.5t255 102.5h174q33 0 71-11.5t54-31.5h4q0 167-44 229t-163 62h-249v203h213q258 0 385-116t127-339v-639zM764 354v262q0 73-36 118.5t-95 45.5h-96q-59 0-95-45.5t-36-118.5v-262q0-72 36-116.5t95-44.5h96q59 0 95 44.5t36 116.5z" glyph-name="partialdiff" horiz-adv-x="1169" unicode="&#x2202;"/><glyph d="M1085 1155h-151v-1155h-211v1155h-268v-1155h-213v1155h-152v207h995v-207z" glyph-name="product" unicode="&#x220f;"/><glyph d="M1079 0h-936v309l439 371-439 371v311h936v-207h-594v-65l394-340v-138l-394-340v-65h594v-207z" glyph-name="summation" horiz-adv-x="1222" unicode="&#x2211;"/><glyph d="M983 485h-790v199h790v-199z" glyph-name="minus" unicode="&#x2212;"/><glyph d="M1124 973l-391-973h-213l-211 485h-205v199h357l157-416 265 705h241z" glyph-name="radical" unicode="&#x221a;"/><glyph d="M1108 627q0-74-58.5-127.5t-142.5-53.5h-176q-72 0-115 43-57-43-116-43h-174q-84 0-143.5 53.5t-59.5 127.5v137q0 75 59 127.5t144 52.5h174q59 0 116-43 46 43 115 43h176q85 0 143-52.5t58-127.5v-137zM903 649v92q0 18-13.5 30.5t-33.5 12.5h-82q-55 0-55-57v-63q0-58 55-58h82q20 0 33.5 12t13.5 31zM514 664v63q0 23-13 40t-44 17h-80q-20 0-33.5-12.5t-13.5-30.5v-92q0-19 13.5-31t33.5-12h80q57 0 57 58z" glyph-name="infinity" horiz-adv-x="1230" unicode="&#x221e;"/><glyph d="M373-68v1450l235 267h305v-195h-163q-50 0-88.5-49t-38.5-109v-1450l-236-266h-305v195h164q50 0 88.5 48.5t38.5 108.5z" glyph-name="integral" horiz-adv-x="995" unicode="&#x222b;"/><glyph d="M1139 776l-195-162h-149q-44 1-83.5 19.5t-68.5 44-54.5 51.5-52.5 45-51 21h-24q-31 0-51.5-25.5t-20.5-62.5v-80h-211v161l195 162h149q53-1 101.5-29t78-60.5 64.5-61 65-31.5h25q31 0 51.5 25.5t20.5 62.5v80h211v-160zM1139 377l-195-162h-149q-44 1-83.5 19t-68.5 44-54.5 51.5-52.5 44.5-51 21h-24q-31 0-51.5-25.5t-20.5-62.5v-80h-211v162l195 162h149q53-1 101.5-29t78-60.5 64.5-61 65-31.5h25q31 0 51.5 25.5t20.5 62.5v80h211v-160z" glyph-name="approxequal" horiz-adv-x="1288" unicode="&#x2248;"/><glyph d="M203 240l696 692h74l-697-692h-73zM973 643h-770v186h770v-186zM973 342h-770v186h770v-186zM973 643h-770v186h770v-186zM973 342h-770v186h770v-186z" glyph-name="notequal" unicode="&#x2260;"/><glyph d="M983 258l-790 266v195l790 266v-237l-500-127 500-125v-238zM983 0h-790v186h790v-186z" glyph-name="lessequal" unicode="&#x2264;"/><glyph d="M983 524l-790-266v238l499 125-499 127v237l790-266v-195zM983 0h-790v186h790v-186z" glyph-name="greaterequal" unicode="&#x2265;"/><glyph d="M1051 682l-465-713-463 713 463 709zM815 680l-229 369-230-369 230-371z" glyph-name="lozenge" horiz-adv-x="1173" unicode="&#x25ca;"/><glyph d="M1122 0h-282v772h-338v-772h-283v772h-209v201h209v153q0 37 8 75t30 81 56 76 92 54.5 132 21.5h585v-209h-524q-46 0-71-31.5t-25-85.5v-135h620v-973z" glyph-name="fi" horiz-adv-x="1277" unicode="&#xfb01;"/><glyph d="M840 0v1225h-242q-46 0-71-31.5t-25-85.5v-135h196v-201h-196v-772h-283v772h-209v201h209v153q0 37 8 75t30 81 56 76 92 54.5 132 21.5h585v-1434h-282z" glyph-name="fl" horiz-adv-x="1277" unicode="&#xfb02;"/><glyph glyph-name="space.001" horiz-adv-x="512"/><glyph glyph-name="_0000" horiz-adv-x="0"/></font>
</defs>
</svg>
